The text below is selected, press Ctrl+C to copy to your clipboard. (⌘+C on Mac) No line numbers will be copied.
The Blackout Experiment (2021) 720p...

24th November 2022 04:12:53 PM | Views: 12
  1. Format                                   : Matroska
  2. Format version                           : Version 4
  3. File size                                : 869 MiB
  4. Duration                                 : 1 h 20 min
  5. Overall bit rate                         : 1 516 kb/s
  6. Movie name                               : The Blackout Experiment (2021) 720p iTunes WEB-DL x264 Dual Audio [Hindi DD2.0 + English DD5.1] ESub 868MB [MoviezAddiction.life]
  7. Encoded date                             : UTC 2022-11-24 10:07:41
  8. Writing application                      : mkvmerge v72.0.0 ('Minuano (Six-eight)') 64-bit
  9. Writing library                          : libebml v1.4.4 + libmatroska v1.7.1
  10.  
  11. Video
  12. ID                                       : 1
  13. Format                                   : AVC
  14. Format/Info                              : Advanced Video Codec
  15. Format profile                           : [email protected]
  16. Format settings                          : CABAC / 4 Ref Frames
  17. Format settings, CABAC                   : Yes
  18. Format settings, Reference frames        : 4 frames
  19. Codec ID                                 : V_MPEG4/ISO/AVC
  20. Duration                                 : 1 h 20 min
  21. Bit rate                                 : 1 099 kb/s
  22. Width                                    : 1 280 pixels
  23. Height                                   : 504 pixels
  24. Display aspect ratio                     : 2.535
  25. Original display aspect ratio            : 2.536
  26. Frame rate mode                          : Variable
  27. Frame rate                               : 23.976 FPS
  28. Color space                              : YUV
  29. Chroma subsampling                       : 4:2:0
  30. Bit depth                                : 8 bits
  31. Scan type                                : Progressive
  32. Bits/(Pixel*Frame)                       : 0.071
  33. Stream size                              : 629 MiB (72%)
  34. Default                                  : Yes
  35. Forced                                   : No
  36. Color range                              : Limited
  37. Color primaries                          : BT.709
  38. Transfer characteristics                 : BT.709
  39. Matrix coefficients                      : BT.709
  40.  
  41. Audio #1
  42. ID                                       : 2
  43. Format                                   : AC-3
  44. Format/Info                              : Audio Coding 3
  45. Commercial name                          : Dolby Digital
  46. Format settings                          : Dolby Surround
  47. Codec ID                                 : A_AC3
  48. Duration                                 : 1 h 20 min
  49. Bit rate mode                            : Constant
  50. Bit rate                                 : 224 kb/s
  51. Channel(s)                               : 2 channels
  52. Channel layout                           : L R
  53. Sampling rate                            : 48.0 kHz
  54. Frame rate                               : 31.250 FPS (1536 SPF)
  55. Compression mode                         : Lossy
  56. Stream size                              : 128 MiB (15%)
  57. Title                                    : Hindi
  58. Language                                 : Hindi
  59. Service kind                             : Complete Main
  60. Default                                  : Yes
  61. Forced                                   : No
  62.  
  63. Audio #2
  64. ID                                       : 3
  65. Format                                   : AAC LC SBR
  66. Format/Info                              : Advanced Audio Codec Low Complexity with Spectral Band Replication
  67. Commercial name                          : HE-AAC
  68. Format settings                          : Explicit
  69. Codec ID                                 : A_AAC-2
  70. Duration                                 : 1 h 20 min
  71. Bit rate                                 : 192 kb/s
  72. Channel(s)                               : 6 channels
  73. Channel layout                           : C L R Ls Rs LFE
  74. Sampling rate                            : 48.0 kHz
  75. Frame rate                               : 23.438 FPS (2048 SPF)
  76. Compression mode                         : Lossy
  77. Stream size                              : 109 MiB (13%)
  78. Title                                    : English
  79. Language                                 : English
  80. Default                                  : No
  81. Forced                                   : No
  82.  
  83. Text
  84. ID                                       : 4
  85. Format                                   : UTF-8
  86. Codec ID                                 : S_TEXT/UTF8
  87. Codec ID/Info                            : UTF-8 Plain Text
  88. Duration                                 : 1 h 16 min
  89. Bit rate                                 : 52 b/s
  90. Frame rate                               : 0.220 FPS
  91. Count of elements                        : 1005
  92. Stream size                              : 29.2 KiB (0%)
  93. Title                                    : English [SRT]
  94. Language                                 : English
  95. Default                                  : Yes
  96. Forced                                   : No