The text below is selected, press Ctrl+C to copy to your clipboard. (⌘+C on Mac) No line numbers will be copied.
MediaInfo

9th July 2019 10:57:38 AM | Views: 1960
  1. Format                                   : Matroska
  2. Format version                           : Version 4
  3. File size                                : 900 MiB
  4. Duration                                 : 2 h 10 min
  5. Overall bit rate                         : 963 kb/s
  6. Encoded date                             : UTC 2019-07-09 10:54:40
  7. Writing application                      : mkvmerge v28.2.0 ('The Awakening') 64-bit
  8. Writing library                          : libebml v1.3.6 + libmatroska v1.4.9
  9.  
  10. Video
  11. ID                                       : 1
  12. Format                                   : AVC
  13. Format/Info                              : Advanced Video Codec
  14. Format profile                           : [email protected]
  15. Format settings                          : CABAC / 5 Ref Frames
  16. Format settings, CABAC                   : Yes
  17. Format settings, Reference frames        : 5 frames
  18. Codec ID                                 : V_MPEG4/ISO/AVC
  19. Duration                                 : 2 h 10 min
  20. Bit rate                                 : 897 kb/s
  21. Width                                    : 720 pixels
  22. Height                                   : 292 pixels
  23. Display aspect ratio                     : 2.466
  24. Frame rate mode                          : Constant
  25. Frame rate                               : 23.976 (24000/1001) FPS
  26. Color space                              : YUV
  27. Chroma subsampling                       : 4:2:0
  28. Bit depth                                : 8 bits
  29. Scan type                                : Progressive
  30. Bits/(Pixel*Frame)                       : 0.178
  31. Stream size                              : 839 MiB (93%)
  32. Writing library                          : x264 core 157 r2935 545de2f
  33. Encoding settings                        : cabac=1 / ref=5 / deblock=1:-1:-1 / analyse=0x3:0x133 / me=umh / subme=9 / psy=1 / psy_rd=1.00:0.10 / mixed_ref=1 / me_range=24 / chroma_me=1 / trellis=2 / 8x8dct=1 / cqm=0 / deadzone=21,11 / fast_pskip=1 / chroma_qp_offset=-3 / threads=9 / lookahead_threads=1 / sliced_threads=0 / nr=0 / decimate=1 / interlaced=0 / bluray_compat=0 / constrained_intra=0 / bframes=3 / b_pyramid=2 / b_adapt=2 / b_bias=0 / direct=3 / weightb=1 / open_gop=0 / weightp=2 / keyint=250 / keyint_min=23 / scenecut=40 / intra_refresh=0 / rc_lookahead=60 / rc=2pass / mbtree=1 / bitrate=897 / ratetol=1.0 / qcomp=0.60 / qpmin=0 / qpmax=69 / qpstep=4 / cplxblur=20.0 / qblur=0.5 / ip_ratio=1.40 / aq=1:1.00
  34. Default                                  : Yes
  35. Forced                                   : No
  36. Color range                              : Limited
  37. Transfer characteristics                 : BT.709
  38.  
  39. Audio
  40. ID                                       : 2
  41. Format                                   : AAC LC SBR
  42. Format/Info                              : Advanced Audio Codec Low Complexity with Spectral Band Replication
  43. Commercial name                          : HE-AAC
  44. Format settings                          : Explicit
  45. Codec ID                                 : A_AAC-2
  46. Duration                                 : 2 h 10 min
  47. Bit rate                                 : 64.0 kb/s
  48. Channel(s)                               : 2 channels
  49. Channel layout                           : L R
  50. Sampling rate                            : 48.0 kHz
  51. Frame rate                               : 23.438 FPS (2048 SPF)
  52. Compression mode                         : Lossy
  53. Delay relative to video                  : 38 ms
  54. Stream size                              : 59.9 MiB (7%)
  55. Default                                  : Yes
  56. Forced                                   : No