The text below is selected, press Ctrl+C to copy to your clipboard. (⌘+C on Mac) No line numbers will be copied.
Top Gun Maverick (2022) IMAX...

13th January 2023 03:33:59 AM | Views: 8
  1. Format                                   : Matroska
  2. Format version                           : Version 4
  3. File size                                : 22.7 GiB
  4. Duration                                 : 2 h 12 min
  5. Overall bit rate mode                    : Variable
  6. Overall bit rate                         : 24.5 Mb/s
  7. Movie name                               : Top Gun Maverick (2022) IMAX 2160p UHD BluRay x265 10bit HDR DV HEVC Dual Audio [Hindi DDP5.1 + English DTS-HD MA 7.1] ESub 22.6GB [MoviezAddiction]
  8. Encoded date                             : UTC 2023-01-13 02:11:30
  9. Writing application                      : mkvmerge v72.0.0 ('Minuano (Six-eight)') 64-bit
  10. Writing library                          : libebml v1.4.4 + libmatroska v1.7.1
  11.  
  12. Video
  13. ID                                       : 1
  14. Format                                   : HEVC
  15. Format/Info                              : High Efficiency Video Coding
  16. Format profile                           : Main [email protected]@High
  17. HDR format                               : Dolby Vision, Version 1.0, dvhe.07.06, BL+EL+RPU, Blu-ray compatible / SMPTE ST 2094 App 4, Version 1, HDR10+ Profile B compatible
  18. Codec ID                                 : V_MPEGH/ISO/HEVC
  19. Duration                                 : 2 h 10 min
  20. Bit rate                                 : 20.0 Mb/s
  21. Width                                    : 3 840 pixels
  22. Height                                   : 2 024 pixels
  23. Display aspect ratio                     : 1.897
  24. Frame rate mode                          : Constant
  25. Frame rate                               : 23.976 (24000/1001) FPS
  26. Color space                              : YUV
  27. Chroma subsampling                       : 4:2:0 (Type 2)
  28. Bit depth                                : 10 bits
  29. Bits/(Pixel*Frame)                       : 0.108
  30. Stream size                              : 18.2 GiB (80%)
  31. Default                                  : Yes
  32. Forced                                   : No
  33. Color range                              : Limited
  34. Color primaries                          : BT.2020
  35. Transfer characteristics                 : PQ
  36. Matrix coefficients                      : BT.2020 non-constant
  37. Mastering display color primaries        : Display P3
  38. Mastering display luminance              : min: 0.0001 cd/m2, max: 1000 cd/m2
  39. Maximum Content Light Level              : 617 cd/m2
  40. Maximum Frame-Average Light Level        : 496 cd/m2
  41.  
  42. Audio #1
  43. ID                                       : 2
  44. Format                                   : E-AC-3
  45. Format/Info                              : Enhanced AC-3
  46. Commercial name                          : Dolby Digital Plus
  47. Codec ID                                 : A_EAC3
  48. Duration                                 : 2 h 12 min
  49. Bit rate mode                            : Constant
  50. Bit rate                                 : 640 kb/s
  51. Channel(s)                               : 6 channels
  52. Channel layout                           : L R C LFE Ls Rs
  53. Sampling rate                            : 48.0 kHz
  54. Frame rate                               : 31.250 FPS (1536 SPF)
  55. Compression mode                         : Lossy
  56. Stream size                              : 607 MiB (3%)
  57. Title                                    : Hindi
  58. Language                                 : Hindi
  59. Service kind                             : Complete Main
  60. Default                                  : Yes
  61. Forced                                   : No
  62.  
  63. Audio #2
  64. ID                                       : 3
  65. Format                                   : DTS XLL
  66. Format/Info                              : Digital Theater Systems
  67. Commercial name                          : DTS-HD Master Audio
  68. Codec ID                                 : A_DTS
  69. Duration                                 : 2 h 10 min
  70. Bit rate mode                            : Variable
  71. Bit rate                                 : 4 193 kb/s
  72. Channel(s)                               : 8 channels
  73. Channel layout                           : C L R LFE Lb Rb Lss Rss
  74. Sampling rate                            : 48.0 kHz
  75. Frame rate                               : 93.750 FPS (512 SPF)
  76. Bit depth                                : 24 bits
  77. Compression mode                         : Lossless
  78. Stream size                              : 3.81 GiB (17%)
  79. Title                                    : English
  80. Language                                 : English
  81. Default                                  : No
  82. Forced                                   : No
  83.  
  84. Text
  85. ID                                       : 4
  86. Format                                   : PGS
  87. Codec ID                                 : S_HDMV/PGS
  88. Codec ID/Info                            : Picture based subtitle format used on BDs/HD-DVDs
  89. Duration                                 : 1 h 57 min
  90. Bit rate                                 : 36.9 kb/s
  91. Frame rate                               : 0.413 FPS
  92. Count of elements                        : 2906
  93. Stream size                              : 31.0 MiB (0%)
  94. Title                                    : English [PGS]
  95. Language                                 : English
  96. Default                                  : Yes
  97. Forced                                   : No
  98.  
  99. Menu
  100. 00:00:00.000                             : en:Chapter 01
  101. 00:04:59.799                             : en:Chapter 02
  102. 00:09:59.849                             : en:Chapter 03
  103. 00:14:59.815                             : en:Chapter 04
  104. 00:19:59.907                             : en:Chapter 05
  105. 00:24:59.623                             : en:Chapter 06
  106. 00:30:00.006                             : en:Chapter 07
  107. 00:34:59.639                             : en:Chapter 08
  108. 00:39:59.605                             : en:Chapter 09
  109. 00:45:00.155                             : en:Chapter 10
  110. 00:50:00.080                             : en:Chapter 11
  111. 00:55:00.297                             : en:Chapter 12
  112. 01:00:00.346                             : en:Chapter 13
  113. 01:05:00.062                             : en:Chapter 14
  114. 01:09:59.820                             : en:Chapter 15
  115. 01:15:00.370                             : en:Chapter 16
  116. 01:19:59.753                             : en:Chapter 17
  117. 01:25:00.220                             : en:Chapter 18
  118. 01:29:59.602                             : en:Chapter 19
  119. 01:34:59.860                             : en:Chapter 20
  120. 01:40:00.244                             : en:Chapter 21
  121. 01:45:00.002                             : en:Chapter 22
  122. 01:49:59.801                             : en:Chapter 23
  123. 01:55:00.268                             : en:Chapter 24
  124. 01:59:59.775                             : en:Chapter 25
  125. 02:04:59.909                             : en:Chapter 26
  126. 02:09:59.833                             : en:Chapter 27