The text below is selected, press Ctrl+C to copy to your clipboard. (⌘+C on Mac) No line numbers will be copied.
MediaInfo

10th May 2019 12:36:28 PM | Views: 420
  1. Format                      : Matroska
  2. Format version              : Version 4 / Version 2
  3. File size                   : 1.06 GiB
  4. Duration                    : 2 h 10 min
  5. Overall bit rate            : 1 166 kb/s
  6. Encoded date                : UTC 2019-05-10 12:34:27
  7. Writing application         : mkvmerge v28.2.0 ('The Awakening') 64-bit
  8. Writing library             : libebml v1.3.6 + libmatroska v1.4.9
  9.  
  10. Video
  11. ID                          : 1
  12. Format                      : AVC
  13. Format/Info                 : Advanced Video Codec
  14. Format profile              : [email protected]
  15. Format settings             : CABAC / 5 Ref Frames
  16. Format settings, CABAC      : Yes
  17. Format settings, ReFrames   : 5 frames
  18. Codec ID                    : V_MPEG4/ISO/AVC
  19. Duration                    : 2 h 10 min
  20. Bit rate                    : 1 100 kb/s
  21. Width                       : 1 280 pixels
  22. Height                      : 544 pixels
  23. Display aspect ratio        : 2.35:1
  24. Frame rate mode             : Constant
  25. Frame rate                  : 30.000 FPS
  26. Color space                 : YUV
  27. Chroma subsampling          : 4:2:0
  28. Bit depth                   : 8 bits
  29. Scan type                   : Progressive
  30. Bits/(Pixel*Frame)          : 0.053
  31. Stream size                 : 1.00 GiB (94%)
  32. Writing library             : x264 core 157 r2935 545de2f
  33. Encoding settings           : cabac=1 / ref=5 / deblock=1:-1:-1 / analyse=0x3:0x133 / me=umh / subme=9 / psy=1 / psy_rd=1.00:0.10 / mixed_ref=1 / me_range=24 / chroma_me=1 / trellis=2 / 8x8dct=1 / cqm=0 / deadzone=21,11 / fast_pskip=1 / chroma_qp_offset=-3 / threads=17 / lookahead_threads=1 / sliced_threads=0 / nr=0 / decimate=1 / interlaced=0 / bluray_compat=0 / constrained_intra=0 / bframes=3 / b_pyramid=2 / b_adapt=2 / b_bias=0 / direct=3 / weightb=1 / open_gop=0 / weightp=2 / keyint=250 / keyint_min=25 / scenecut=40 / intra_refresh=0 / rc_lookahead=60 / rc=2pass / mbtree=1 / bitrate=1100 / ratetol=1.0 / qcomp=0.60 / qpmin=0 / qpmax=69 / qpstep=4 / cplxblur=20.0 / qblur=0.5 / ip_ratio=1.40 / aq=1:1.00
  34. Default                     : Yes
  35. Forced                      : No
  36. Color range                 : Limited
  37. Color primaries             : BT.709
  38. Transfer characteristics    : BT.709
  39.  
  40. Audio
  41. ID                          : 2
  42. Format                      : AAC
  43. Format/Info                 : Advanced Audio Codec
  44. Format profile              : HE-AAC / LC
  45. Format settings             : Explicit
  46. Codec ID                    : A_AAC-2
  47. Duration                    : 2 h 10 min
  48. Bit rate                    : 64.0 kb/s
  49. Channel(s)                  : 2 channels
  50. Channel positions           : Front: L R
  51. Sampling rate               : 48.0 kHz / 24.0 kHz
  52. Frame rate                  : 23.438 FPS (1024 SPF)
  53. Compression mode            : Lossy
  54. Delay relative to video     : 42 ms
  55. Stream size                 : 59.6 MiB (5%)
  56. Language                    : English
  57. Default                     : Yes
  58. Forced                      : No