The text below is selected, press Ctrl+C to copy to your clipboard. (⌘+C on Mac) No line numbers will be copied.
The Santa Clauses (2022) S01E01...

23rd November 2022 02:58:16 PM | Views: 13
  1. Format                                   : Matroska
  2. Format version                           : Version 4
  3. File size                                : 542 MiB
  4. Duration                                 : 30 min 41 s
  5. Overall bit rate                         : 2 470 kb/s
  6. Movie name                               : The Santa Clauses (2022) S01E01 [Good to Ho] REMASTERED DS4K 1080p DSNP WEB-DL x265 10bit HEVC English DDP5.1 Atmos ESub 542MB [MoviezAddiction.life]
  7. Encoded date                             : UTC 2022-11-23 13:48:32
  8. Writing application                      : mkvmerge v72.0.0 ('Minuano (Six-eight)') 64-bit
  9. Writing library                          : libebml v1.4.4 + libmatroska v1.7.1
  10.  
  11. Video
  12. ID                                       : 1
  13. Format                                   : HEVC
  14. Format/Info                              : High Efficiency Video Coding
  15. Format profile                           : Main [email protected]@Main
  16. Codec ID                                 : V_MPEGH/ISO/HEVC
  17. Duration                                 : 30 min 40 s
  18. Bit rate                                 : 1 700 kb/s
  19. Width                                    : 1 920 pixels
  20. Height                                   : 872 pixels
  21. Display aspect ratio                     : 2.2:1
  22. Frame rate mode                          : Variable
  23. Frame rate                               : 23.976 FPS
  24. Color space                              : YUV
  25. Chroma subsampling                       : 4:2:0
  26. Bit depth                                : 10 bits
  27. Bits/(Pixel*Frame)                       : 0.042
  28. Stream size                              : 373 MiB (69%)
  29. Default                                  : Yes
  30. Forced                                   : No
  31. Color range                              : Limited
  32. Color primaries                          : BT.709
  33. Transfer characteristics                 : BT.709
  34. Matrix coefficients                      : BT.709
  35.  
  36. Audio
  37. ID                                       : 2
  38. Format                                   : E-AC-3 JOC
  39. Format/Info                              : Enhanced AC-3 with Joint Object Coding
  40. Commercial name                          : Dolby Digital Plus with Dolby Atmos
  41. Codec ID                                 : A_EAC3
  42. Duration                                 : 30 min 41 s
  43. Bit rate mode                            : Constant
  44. Bit rate                                 : 768 kb/s
  45. Channel(s)                               : 6 channels
  46. Channel layout                           : L R C LFE Ls Rs
  47. Sampling rate                            : 48.0 kHz
  48. Frame rate                               : 31.250 FPS (1536 SPF)
  49. Compression mode                         : Lossy
  50. Stream size                              : 169 MiB (31%)
  51. Title                                    : English
  52. Language                                 : English
  53. Service kind                             : Complete Main
  54. Default                                  : Yes
  55. Forced                                   : No
  56. Complexity index                         : 16
  57. Number of dynamic objects                : 15
  58. Bed channel count                        : 1 channel
  59. Bed channel configuration                : LFE
  60.  
  61. Text
  62. ID                                       : 3
  63. Format                                   : UTF-8
  64. Codec ID                                 : S_TEXT/UTF8
  65. Codec ID/Info                            : UTF-8 Plain Text
  66. Duration                                 : 28 min 30 s
  67. Bit rate                                 : 98 b/s
  68. Frame rate                               : 0.343 FPS
  69. Count of elements                        : 587
  70. Stream size                              : 20.6 KiB (0%)
  71. Title                                    : English [SRT]
  72. Language                                 : English
  73. Default                                  : Yes
  74. Forced                                   : No