The text below is selected, press Ctrl+C to copy to your clipboard. (⌘+C on Mac) No line numbers will be copied.
Ghostbusters - Afterlife (2021) 1080p...

4th January 2022 08:59:42 AM | Views: 84
  1. Format                                   : Matroska
  2. Format version                           : Version 4
  3. File size                                : 2.16 GiB
  4. Duration                                 : 2 h 3 min
  5. Overall bit rate                         : 2 499 kb/s
  6. Movie name                               : Ghostbusters - Afterlife (2021) 1080p WEB-DL x265 10bit HEVC English DDP5.1 Atmos ESub 2.16GB [www.MoviezAddiction.art]
  7. Encoded date                             : UTC 2022-01-04 07:55:06
  8. Writing application                      : mkvmerge v47.0.0 ('Black Flag') 64-bit
  9. Writing library                          : libebml v1.3.10 + libmatroska v1.5.2
  10.  
  11. Video
  12. ID                                       : 1
  13. Format                                   : HEVC
  14. Format/Info                              : High Efficiency Video Coding
  15. Format profile                           : Main [email protected]@Main
  16. Codec ID                                 : V_MPEGH/ISO/HEVC
  17. Duration                                 : 2 h 3 min
  18. Bit rate                                 : 1 729 kb/s
  19. Width                                    : 1 920 pixels
  20. Height                                   : 800 pixels
  21. Display aspect ratio                     : 2.40:1
  22. Frame rate mode                          : Constant
  23. Frame rate                               : 23.976 (24000/1001) FPS
  24. Color space                              : YUV
  25. Chroma subsampling                       : 4:2:0
  26. Bit depth                                : 10 bits
  27. Bits/(Pixel*Frame)                       : 0.047
  28. Stream size                              : 1.50 GiB (69%)
  29. Title                                    : [www.MoviezAddiction.art]
  30. Default                                  : Yes
  31. Forced                                   : No
  32. Color range                              : Limited
  33. Color primaries                          : BT.709
  34. Transfer characteristics                 : BT.709
  35. Matrix coefficients                      : BT.709
  36.  
  37. Audio
  38. ID                                       : 2
  39. Format                                   : E-AC-3 JOC
  40. Format/Info                              : Enhanced AC-3 with Joint Object Coding
  41. Commercial name                          : Dolby Digital Plus with Dolby Atmos
  42. Codec ID                                 : A_EAC3
  43. Duration                                 : 2 h 3 min
  44. Bit rate mode                            : Constant
  45. Bit rate                                 : 768 kb/s
  46. Channel(s)                               : 6 channels
  47. Channel layout                           : L R C LFE Ls Rs
  48. Sampling rate                            : 48.0 kHz
  49. Frame rate                               : 31.250 FPS (1536 SPF)
  50. Compression mode                         : Lossy
  51. Stream size                              : 681 MiB (31%)
  52. Title                                    : [www.MoviezAddiction.art] - English
  53. Language                                 : English
  54. Service kind                             : Complete Main
  55. Default                                  : Yes
  56. Forced                                   : No
  57. Complexity index                         : 16
  58. Number of dynamic objects                : 15
  59. Bed channel count                        : 1 channel
  60. Bed channel configuration                : LFE
  61.  
  62. Text
  63. ID                                       : 3
  64. Format                                   : UTF-8
  65. Codec ID                                 : S_TEXT/UTF8
  66. Codec ID/Info                            : UTF-8 Plain Text
  67. Duration                                 : 1 h 58 min
  68. Bit rate                                 : 39 b/s
  69. Count of elements                        : 1186
  70. Stream size                              : 34.2 KiB (0%)
  71. Title                                    : [www.MoviezAddiction.art] - English [SDH] [SRT]
  72. Language                                 : English
  73. Default                                  : Yes
  74. Forced                                   : No