The text below is selected, press Ctrl+C to copy to your clipboard. (⌘+C on Mac) No line numbers will be copied.
Stay Close (2021) S01E01 720p

3rd January 2022 11:23:59 AM | Views: 48
  1. Format                                   : Matroska
  2. Format version                           : Version 4
  3. File size                                : 565 MiB
  4. Duration                                 : 53 min 15 s
  5. Overall bit rate                         : 1 483 kb/s
  6. Movie name                               : Stay Close (2021) S01E01 720p WEB-DL x264 Dual Audio [Hindi DD5.1 + English DD5.1] ESub 564MB [www.MoviezAddiction.art]
  7. Encoded date                             : UTC 2022-01-03 08:25:05
  8. Writing application                      : mkvmerge v47.0.0 ('Black Flag') 64-bit
  9. Writing library                          : libebml v1.3.10 + libmatroska v1.5.2
  10.  
  11. Video
  12. ID                                       : 1
  13. Format                                   : AVC
  14. Format/Info                              : Advanced Video Codec
  15. Format profile                           : [email protected]
  16. Format settings                          : CABAC / 4 Ref Frames
  17. Format settings, CABAC                   : Yes
  18. Format settings, Reference frames        : 4 frames
  19. Codec ID                                 : V_MPEG4/ISO/AVC
  20. Duration                                 : 53 min 12 s
  21. Bit rate                                 : 1 099 kb/s
  22. Width                                    : 1 280 pixels
  23. Height                                   : 640 pixels
  24. Display aspect ratio                     : 2.000
  25. Frame rate mode                          : Constant
  26. Frame rate                               : 25.000 FPS
  27. Color space                              : YUV
  28. Chroma subsampling                       : 4:2:0
  29. Bit depth                                : 8 bits
  30. Scan type                                : Progressive
  31. Bits/(Pixel*Frame)                       : 0.054
  32. Stream size                              : 419 MiB (74%)
  33. Title                                    : [www.MoviezAddiction.art]
  34. Default                                  : Yes
  35. Forced                                   : No
  36.  
  37. Audio #1
  38. ID                                       : 2
  39. Format                                   : AAC LC SBR
  40. Format/Info                              : Advanced Audio Codec Low Complexity with Spectral Band Replication
  41. Commercial name                          : HE-AAC
  42. Format settings                          : Explicit
  43. Codec ID                                 : A_AAC-2
  44. Duration                                 : 53 min 15 s
  45. Bit rate                                 : 192 kb/s
  46. Channel(s)                               : 6 channels
  47. Channel layout                           : C L R Ls Rs LFE
  48. Sampling rate                            : 48.0 kHz
  49. Frame rate                               : 23.438 FPS (2048 SPF)
  50. Compression mode                         : Lossy
  51. Stream size                              : 72.6 MiB (13%)
  52. Title                                    : [www.MoviezAddiction.art] - Hindi
  53. Language                                 : Hindi
  54. Default                                  : Yes
  55. Forced                                   : No
  56.  
  57. Audio #2
  58. ID                                       : 3
  59. Format                                   : AAC LC SBR
  60. Format/Info                              : Advanced Audio Codec Low Complexity with Spectral Band Replication
  61. Commercial name                          : HE-AAC
  62. Format settings                          : Explicit
  63. Codec ID                                 : A_AAC-2
  64. Duration                                 : 53 min 14 s
  65. Bit rate                                 : 192 kb/s
  66. Channel(s)                               : 6 channels
  67. Channel layout                           : C L R Ls Rs LFE
  68. Sampling rate                            : 48.0 kHz
  69. Frame rate                               : 23.438 FPS (2048 SPF)
  70. Compression mode                         : Lossy
  71. Stream size                              : 72.6 MiB (13%)
  72. Title                                    : [www.MoviezAddiction.art] - English
  73. Language                                 : English
  74. Default                                  : No
  75. Forced                                   : No
  76.  
  77. Text
  78. ID                                       : 4
  79. Format                                   : UTF-8
  80. Codec ID                                 : S_TEXT/UTF8
  81. Codec ID/Info                            : UTF-8 Plain Text
  82. Duration                                 : 50 min 48 s
  83. Bit rate                                 : 72 b/s
  84. Count of elements                        : 636
  85. Stream size                              : 27.0 KiB (0%)
  86. Title                                    : [www.MoviezAddiction.art] - English [SRT]
  87. Language                                 : English
  88. Default                                  : Yes
  89. Forced                                   : No