The text below is selected, press Ctrl+C to copy to your clipboard. (⌘+C on Mac) No line numbers will be copied.
Extraordinary Attorney Woo (2022) S01E01...

14th November 2022 04:45:09 PM | Views: 76
  1. Format                                   : Matroska
  2. Format version                           : Version 4
  3. File size                                : 757 MiB
  4. Duration                                 : 1 h 17 min
  5. Overall bit rate                         : 1 358 kb/s
  6. Movie name                               : Extraordinary Attorney Woo (2022) S01E01 [Extraordinary Attorney Woo] 720p NF WEB-DL x264 Dual Audio [Hindi DDP2.0 + English DDP2.0] ESub 756MB [MoviezAddiction.life]
  7. Encoded date                             : UTC 2022-11-07 04:40:44
  8. Writing application                      : mkvmerge v71.1.0 ('Fortitude') 64-bit
  9. Writing library                          : libebml v1.4.4 + libmatroska v1.7.1
  10.  
  11. Video
  12. ID                                       : 1
  13. Format                                   : AVC
  14. Format/Info                              : Advanced Video Codec
  15. Format profile                           : [email protected]
  16. Format settings                          : CABAC / 4 Ref Frames
  17. Format settings, CABAC                   : Yes
  18. Format settings, Reference frames        : 4 frames
  19. Codec ID                                 : V_MPEG4/ISO/AVC
  20. Duration                                 : 1 h 17 min
  21. Bit rate                                 : 1 099 kb/s
  22. Width                                    : 1 280 pixels
  23. Height                                   : 690 pixels
  24. Display aspect ratio                     : 1.85:1
  25. Original display aspect ratio            : 1.85:1
  26. Frame rate mode                          : Variable
  27. Frame rate                               : 23.976 FPS
  28. Color space                              : YUV
  29. Chroma subsampling                       : 4:2:0
  30. Bit depth                                : 8 bits
  31. Scan type                                : Progressive
  32. Bits/(Pixel*Frame)                       : 0.052
  33. Stream size                              : 613 MiB (81%)
  34. Default                                  : Yes
  35. Forced                                   : No
  36.  
  37. Audio #1
  38. ID                                       : 2
  39. Format                                   : E-AC-3
  40. Format/Info                              : Enhanced AC-3
  41. Commercial name                          : Dolby Digital Plus
  42. Codec ID                                 : A_EAC3
  43. Duration                                 : 1 h 17 min
  44. Bit rate mode                            : Constant
  45. Bit rate                                 : 128 kb/s
  46. Channel(s)                               : 2 channels
  47. Channel layout                           : L R
  48. Sampling rate                            : 48.0 kHz
  49. Frame rate                               : 31.250 FPS (1536 SPF)
  50. Compression mode                         : Lossy
  51. Stream size                              : 71.3 MiB (9%)
  52. Title                                    : Hindi
  53. Language                                 : Hindi
  54. Service kind                             : Complete Main
  55. Default                                  : Yes
  56. Forced                                   : No
  57.  
  58. Audio #2
  59. ID                                       : 3
  60. Format                                   : E-AC-3
  61. Format/Info                              : Enhanced AC-3
  62. Commercial name                          : Dolby Digital Plus
  63. Codec ID                                 : A_EAC3
  64. Duration                                 : 1 h 17 min
  65. Bit rate mode                            : Constant
  66. Bit rate                                 : 128 kb/s
  67. Channel(s)                               : 2 channels
  68. Channel layout                           : L R
  69. Sampling rate                            : 48.0 kHz
  70. Frame rate                               : 31.250 FPS (1536 SPF)
  71. Compression mode                         : Lossy
  72. Stream size                              : 71.3 MiB (9%)
  73. Title                                    : English
  74. Language                                 : English
  75. Service kind                             : Complete Main
  76. Default                                  : No
  77. Forced                                   : No
  78.  
  79. Text
  80. ID                                       : 4
  81. Format                                   : UTF-8
  82. Codec ID                                 : S_TEXT/UTF8
  83. Codec ID/Info                            : UTF-8 Plain Text
  84. Duration                                 : 1 h 15 min
  85. Bit rate                                 : 66 b/s
  86. Frame rate                               : 0.248 FPS
  87. Count of elements                        : 1129
  88. Stream size                              : 36.9 KiB (0%)
  89. Title                                    : English [SRT]
  90. Language                                 : English
  91. Default                                  : Yes
  92. Forced                                   : No