The text below is selected, press Ctrl+C to copy to your clipboard. (⌘+C on Mac) No line numbers will be copied.
Jurassic World Camp Cretaceous S03E01...

22nd May 2021 10:45:26 AM | Views: 28
  1. Format                                   : Matroska
  2. Format version                           : Version 4
  3. File size                                : 885 MiB
  4. Duration                                 : 24 min 18 s
  5. Overall bit rate mode                    : Variable
  6. Overall bit rate                         : 5 090 kb/s
  7. Movie name                               : Jurassic World Camp Cretaceous S03E01 [ View From the Top ]
  8. Encoded date                             : UTC 2021-05-22 06:01:19
  9. Writing application                      : mkvmerge v47.0.0 ('Black Flag') 64-bit
  10. Writing library                          : libebml v1.3.10 + libmatroska v1.5.2
  11.  
  12. Video
  13. ID                                       : 1
  14. Format                                   : AVC
  15. Format/Info                              : Advanced Video Codec
  16. Format profile                           : [email protected]
  17. Format settings                          : CABAC / 3 Ref Frames
  18. Format settings, CABAC                   : Yes
  19. Format settings, Reference frames        : 3 frames
  20. Codec ID                                 : V_MPEG4/ISO/AVC
  21. Duration                                 : 24 min 18 s
  22. Bit rate mode                            : Variable
  23. Bit rate                                 : 3 808 kb/s
  24. Nominal bit rate                         : 5 800 kb/s
  25. Maximum bit rate                         : 8 700 kb/s
  26. Width                                    : 1 920 pixels
  27. Height                                   : 1 080 pixels
  28. Display aspect ratio                     : 16:9
  29. Frame rate mode                          : Constant
  30. Frame rate                               : 23.976 (24000/1001) FPS
  31. Color space                              : YUV
  32. Chroma subsampling                       : 4:2:0
  33. Bit depth                                : 8 bits
  34. Scan type                                : Progressive
  35. Bits/(Pixel*Frame)                       : 0.077
  36. Stream size                              : 662 MiB (75%)
  37. Title                                    : [Www.MoviezAddiction.casa]
  38. Writing library                          : x264 core 148 r2722 1b0121b
  39. Encoding settings                        : cabac=1 / ref=3 / deblock=1:0:0 / analyse=0x1:0x111 / me=umh / subme=10 / psy=1 / psy_rd=1.00:0.00 / mixed_ref=1 / me_range=24 / chroma_me=1 / trellis=2 / 8x8dct=0 / cqm=0 / deadzone=21,11 / fast_pskip=1 / chroma_qp_offset=-2 / threads=8 / lookahead_threads=1 / sliced_threads=0 / nr=0 / decimate=1 / interlaced=0 / bluray_compat=0 / stitchable=1 / constrained_intra=0 / bframes=2 / b_pyramid=0 / b_adapt=2 / b_bias=0 / direct=3 / weightb=1 / open_gop=0 / weightp=2 / keyint=250 / keyint_min=23 / scenecut=0 / intra_refresh=0 / rc_lookahead=48 / rc=2pass / mbtree=1 / bitrate=5800 / ratetol=1.0 / qcomp=0.50 / qpmin=6 / qpmax=51 / qpstep=4 / cplxblur=20.0 / qblur=0.5 / vbv_maxrate=8700 / vbv_bufsize=11600 / nal_hrd=vbr / filler=0 / ip_ratio=1.40 / aq=1:1.00
  40. Language                                 : English
  41. Default                                  : Yes
  42. Forced                                   : No
  43.  
  44. Audio #1
  45. ID                                       : 2
  46. Format                                   : E-AC-3
  47. Format/Info                              : Enhanced AC-3
  48. Commercial name                          : Dolby Digital Plus
  49. Codec ID                                 : A_EAC3
  50. Duration                                 : 24 min 18 s
  51. Bit rate mode                            : Constant
  52. Bit rate                                 : 640 kb/s
  53. Channel(s)                               : 6 channels
  54. Channel layout                           : L R C LFE Ls Rs
  55. Sampling rate                            : 48.0 kHz
  56. Frame rate                               : 31.250 FPS (1536 SPF)
  57. Compression mode                         : Lossy
  58. Stream size                              : 111 MiB (13%)
  59. Title                                    : [Www.MoviezAddiction.casa]
  60. Language                                 : Hindi
  61. Service kind                             : Complete Main
  62. Default                                  : Yes
  63. Forced                                   : Yes
  64.  
  65. Audio #2
  66. ID                                       : 3
  67. Format                                   : E-AC-3
  68. Format/Info                              : Enhanced AC-3
  69. Commercial name                          : Dolby Digital Plus
  70. Codec ID                                 : A_EAC3
  71. Duration                                 : 24 min 18 s
  72. Bit rate mode                            : Constant
  73. Bit rate                                 : 640 kb/s
  74. Channel(s)                               : 6 channels
  75. Channel layout                           : L R C LFE Ls Rs
  76. Sampling rate                            : 48.0 kHz
  77. Frame rate                               : 31.250 FPS (1536 SPF)
  78. Compression mode                         : Lossy
  79. Stream size                              : 111 MiB (13%)
  80. Title                                    : [Www.MoviezAddiction.casa]
  81. Language                                 : English
  82. Service kind                             : Complete Main
  83. Default                                  : No
  84. Forced                                   : No
  85.  
  86. Text
  87. ID                                       : 4
  88. Format                                   : UTF-8
  89. Codec ID                                 : S_TEXT/UTF8
  90. Codec ID/Info                            : UTF-8 Plain Text
  91. Duration                                 : 22 min 33 s
  92. Bit rate                                 : 59 b/s
  93. Count of elements                        : 395
  94. Stream size                              : 9.80 KiB (0%)
  95. Title                                    : [Www.MoviezAddiction.casa]
  96. Language                                 : English
  97. Default                                  : Yes
  98. Forced                                   : Yes