The text below is selected, press Ctrl+C to copy to your clipboard. (⌘+C on Mac) No line numbers will be copied.
Blonde (2022) REMASTERED DS4K 720p...

8th November 2022 02:27:35 PM | Views: 25
  1. Format                                   : Matroska
  2. Format version                           : Version 4
  3. File size                                : 1.74 GiB
  4. Duration                                 : 2 h 47 min
  5. Overall bit rate                         : 1 483 kb/s
  6. Movie name                               : Blonde (2022) REMASTERED DS4K 720p NF WEB-DL x264 Dual Audio [Hindi DD5.1 + English DD5.1] ESub 1.73GB [MoviezAddiction.life]
  7. Encoded date                             : UTC 2022-11-08 12:41:26
  8. Writing application                      : mkvmerge v71.1.0 ('Fortitude') 64-bit
  9. Writing library                          : libebml v1.4.4 + libmatroska v1.7.1
  10.  
  11. Video
  12. ID                                       : 1
  13. Format                                   : AVC
  14. Format/Info                              : Advanced Video Codec
  15. Format profile                           : [email protected]
  16. Format settings                          : CABAC / 4 Ref Frames
  17. Format settings, CABAC                   : Yes
  18. Format settings, Reference frames        : 4 frames
  19. Codec ID                                 : V_MPEG4/ISO/AVC
  20. Duration                                 : 2 h 47 min
  21. Bit rate                                 : 1 099 kb/s
  22. Width                                    : 1 280 pixels
  23. Height                                   : 720 pixels
  24. Display aspect ratio                     : 16:9
  25. Frame rate mode                          : Variable
  26. Frame rate                               : 24.000 FPS
  27. Color space                              : YUV
  28. Chroma subsampling                       : 4:2:0
  29. Bit depth                                : 8 bits
  30. Scan type                                : Progressive
  31. Bits/(Pixel*Frame)                       : 0.050
  32. Stream size                              : 1.29 GiB (74%)
  33. Default                                  : Yes
  34. Forced                                   : No
  35. Color range                              : Limited
  36. Color primaries                          : BT.709
  37. Transfer characteristics                 : BT.709
  38. Matrix coefficients                      : BT.709
  39.  
  40. Audio #1
  41. ID                                       : 2
  42. Format                                   : AAC LC SBR
  43. Format/Info                              : Advanced Audio Codec Low Complexity with Spectral Band Replication
  44. Commercial name                          : HE-AAC
  45. Format settings                          : Explicit
  46. Codec ID                                 : A_AAC-2
  47. Duration                                 : 2 h 47 min
  48. Bit rate                                 : 192 kb/s
  49. Channel(s)                               : 6 channels
  50. Channel layout                           : C L R Ls Rs LFE
  51. Sampling rate                            : 48.0 kHz
  52. Frame rate                               : 23.438 FPS (2048 SPF)
  53. Compression mode                         : Lossy
  54. Stream size                              : 228 MiB (13%)
  55. Title                                    : Hindi
  56. Language                                 : Hindi
  57. Default                                  : Yes
  58. Forced                                   : No
  59.  
  60. Audio #2
  61. ID                                       : 3
  62. Format                                   : AAC LC SBR
  63. Format/Info                              : Advanced Audio Codec Low Complexity with Spectral Band Replication
  64. Commercial name                          : HE-AAC
  65. Format settings                          : Explicit
  66. Codec ID                                 : A_AAC-2
  67. Duration                                 : 2 h 47 min
  68. Bit rate                                 : 192 kb/s
  69. Channel(s)                               : 6 channels
  70. Channel layout                           : C L R Ls Rs LFE
  71. Sampling rate                            : 48.0 kHz
  72. Frame rate                               : 23.438 FPS (2048 SPF)
  73. Compression mode                         : Lossy
  74. Stream size                              : 228 MiB (13%)
  75. Title                                    : English
  76. Language                                 : English
  77. Default                                  : No
  78. Forced                                   : No
  79.  
  80. Text
  81. ID                                       : 4
  82. Format                                   : UTF-8
  83. Codec ID                                 : S_TEXT/UTF8
  84. Codec ID/Info                            : UTF-8 Plain Text
  85. Duration                                 : 2 h 35 min
  86. Bit rate                                 : 35 b/s
  87. Frame rate                               : 0.142 FPS
  88. Count of elements                        : 1331
  89. Stream size                              : 41.0 KiB (0%)
  90. Title                                    : English [SRT]
  91. Language                                 : English
  92. Default                                  : Yes
  93. Forced                                   : No
  94.  
  95. Menu
  96. 00:00:00.000                             : en:Part 01
  97. 02:43:12.000                             : en:Credits