The text below is selected, press Ctrl+C to copy to your clipboard. (⌘+C on Mac) No line numbers will be copied.
Encanto (2021) 1080p REMUX

21st January 2022 05:00:47 AM | Views: 60
  1. Format                                   : Matroska
  2. Format version                           : Version 4
  3. File size                                : 21.3 GiB
  4. Duration                                 : 1 h 42 min
  5. Overall bit rate mode                    : Variable
  6. Overall bit rate                         : 29.9 Mb/s
  7. Movie name                               : Encanto (2021) 1080p BluRay REMUX x264 Dual Audio [Hindi DDP5.1 + English DTS-HD MA 7.1] ESub 21.3GB [www.MoviezAddiction.art]
  8. Encoded date                             : UTC 2022-01-19 07:45:57
  9. Writing application                      : mkvmerge v47.0.0 ('Black Flag') 64-bit
  10. Writing library                          : libebml v1.3.10 + libmatroska v1.5.2
  11.  
  12. Video
  13. ID                                       : 1
  14. Format                                   : AVC
  15. Format/Info                              : Advanced Video Codec
  16. Format profile                           : [email protected]
  17. Format settings                          : CABAC / 4 Ref Frames
  18. Format settings, CABAC                   : Yes
  19. Format settings, Reference frames        : 4 frames
  20. Codec ID                                 : V_MPEG4/ISO/AVC
  21. Duration                                 : 1 h 42 min
  22. Bit rate mode                            : Variable
  23. Bit rate                                 : 24.8 Mb/s
  24. Maximum bit rate                         : 31.0 Mb/s
  25. Width                                    : 1 920 pixels
  26. Height                                   : 1 080 pixels
  27. Display aspect ratio                     : 16:9
  28. Frame rate mode                          : Constant
  29. Frame rate                               : 23.976 (24000/1001) FPS
  30. Color space                              : YUV
  31. Chroma subsampling                       : 4:2:0
  32. Bit depth                                : 8 bits
  33. Scan type                                : Progressive
  34. Bits/(Pixel*Frame)                       : 0.499
  35. Stream size                              : 17.7 GiB (83%)
  36. Title                                    : [www.MoviezAddiction.art]
  37. Default                                  : Yes
  38. Forced                                   : No
  39.  
  40. Audio #1
  41. ID                                       : 2
  42. Format                                   : E-AC-3
  43. Format/Info                              : Enhanced AC-3
  44. Commercial name                          : Dolby Digital Plus
  45. Codec ID                                 : A_EAC3
  46. Duration                                 : 1 h 42 min
  47. Bit rate mode                            : Constant
  48. Bit rate                                 : 192 kb/s
  49. Channel(s)                               : 6 channels
  50. Channel layout                           : L R C LFE Ls Rs
  51. Sampling rate                            : 48.0 kHz
  52. Frame rate                               : 31.250 FPS (1536 SPF)
  53. Compression mode                         : Lossy
  54. Delay relative to video                  : 16 ms
  55. Stream size                              : 140 MiB (1%)
  56. Title                                    : [www.MoviezAddiction.art] - Hindi
  57. Language                                 : Hindi
  58. Service kind                             : Complete Main
  59. Default                                  : Yes
  60. Forced                                   : No
  61.  
  62. Audio #2
  63. ID                                       : 3
  64. Format                                   : DTS XLL
  65. Format/Info                              : Digital Theater Systems
  66. Commercial name                          : DTS-HD Master Audio
  67. Codec ID                                 : A_DTS
  68. Duration                                 : 1 h 42 min
  69. Bit rate mode                            : Variable
  70. Bit rate                                 : 4 814 kb/s
  71. Channel(s)                               : 8 channels
  72. Channel layout                           : C L R LFE Lb Rb Lss Rss
  73. Sampling rate                            : 48.0 kHz
  74. Frame rate                               : 93.750 FPS (512 SPF)
  75. Bit depth                                : 24 bits
  76. Compression mode                         : Lossless
  77. Stream size                              : 3.43 GiB (16%)
  78. Title                                    : [www.MoviezAddiction.art] - English
  79. Language                                 : English
  80. Default                                  : No
  81. Forced                                   : No
  82.  
  83. Text
  84. ID                                       : 4
  85. Format                                   : PGS
  86. Codec ID                                 : S_HDMV/PGS
  87. Codec ID/Info                            : Picture based subtitle format used on BDs/HD-DVDs
  88. Duration                                 : 1 h 36 min
  89. Bit rate                                 : 49.7 kb/s
  90. Count of elements                        : 3674
  91. Stream size                              : 34.3 MiB (0%)
  92. Title                                    : [www.MoviezAddiction.art] - English [PGS]
  93. Language                                 : English
  94. Default                                  : Yes
  95. Forced                                   : No
  96.  
  97. Menu
  98. 00:00:00.000                             : en:Chapter 01
  99. 00:03:57.654                             : en:Chapter 02
  100. 00:09:49.297                             : en:Chapter 03
  101. 00:15:07.573                             : en:Chapter 04
  102. 00:16:54.889                             : en:Chapter 05
  103. 00:21:48.807                             : en:Chapter 06
  104. 00:24:54.910                             : en:Chapter 07
  105. 00:28:58.612                             : en:Chapter 08
  106. 00:31:10.619                             : en:Chapter 09
  107. 00:38:35.104                             : en:Chapter 10
  108. 00:44:57.820                             : en:Chapter 11
  109. 00:53:39.967                             : en:Chapter 12
  110. 01:01:22.345                             : en:Chapter 13
  111. 01:06:28.067                             : en:Chapter 14
  112. 01:11:41.255                             : en:Chapter 15
  113. 01:16:38.135                             : en:Chapter 16
  114. 01:24:25.394                             : en:Chapter 17
  115. 01:31:02.207                             : en:Chapter 18