The text below is selected, press Ctrl+C to copy to your clipboard. (⌘+C on Mac) No line numbers will be copied.
Vengeance (2022) 720p BluRay x264...

14th November 2022 07:02:29 AM | Views: 14
  1. Format                                   : Matroska
  2. Format version                           : Version 4
  3. File size                                : 1.16 GiB
  4. Duration                                 : 1 h 48 min
  5. Overall bit rate                         : 1 532 kb/s
  6. Movie name                               : Vengeance (2022) 720p BluRay x264 Dual Audio [Hindi DD5.1 + English BD5.1] ESub 1.15GB [MoviezAddiction.life]
  7. Encoded date                             : UTC 2022-11-13 14:01:01
  8. Writing application                      : mkvmerge v71.1.0 ('Fortitude') 64-bit
  9. Writing library                          : libebml v1.4.4 + libmatroska v1.7.1
  10.  
  11. Video
  12. ID                                       : 1
  13. Format                                   : AVC
  14. Format/Info                              : Advanced Video Codec
  15. Format profile                           : [email protected]
  16. Format settings                          : CABAC / 4 Ref Frames
  17. Format settings, CABAC                   : Yes
  18. Format settings, Reference frames        : 4 frames
  19. Codec ID                                 : V_MPEG4/ISO/AVC
  20. Duration                                 : 1 h 47 min
  21. Bit rate                                 : 1 099 kb/s
  22. Width                                    : 1 280 pixels
  23. Height                                   : 536 pixels
  24. Display aspect ratio                     : 2.40:1
  25. Frame rate mode                          : Variable
  26. Frame rate                               : 23.976 FPS
  27. Color space                              : YUV
  28. Chroma subsampling                       : 4:2:0
  29. Bit depth                                : 8 bits
  30. Scan type                                : Progressive
  31. Bits/(Pixel*Frame)                       : 0.067
  32. Stream size                              : 846 MiB (71%)
  33. Default                                  : Yes
  34. Forced                                   : No
  35.  
  36. Audio #1
  37. ID                                       : 2
  38. Format                                   : AAC LC SBR
  39. Format/Info                              : Advanced Audio Codec Low Complexity with Spectral Band Replication
  40. Commercial name                          : HE-AAC
  41. Format settings                          : Explicit
  42. Codec ID                                 : A_AAC-2
  43. Duration                                 : 1 h 48 min
  44. Bit rate                                 : 192 kb/s
  45. Channel(s)                               : 6 channels
  46. Channel layout                           : C L R Ls Rs LFE
  47. Sampling rate                            : 48.0 kHz
  48. Frame rate                               : 23.438 FPS (2048 SPF)
  49. Compression mode                         : Lossy
  50. Delay relative to video                  : -24 s 357 ms
  51. Stream size                              : 148 MiB (12%)
  52. Title                                    : Hindi
  53. Language                                 : Hindi
  54. Default                                  : Yes
  55. Forced                                   : No
  56.  
  57. Audio #2
  58. ID                                       : 3
  59. Format                                   : AAC LC SBR
  60. Format/Info                              : Advanced Audio Codec Low Complexity with Spectral Band Replication
  61. Commercial name                          : HE-AAC
  62. Format settings                          : Explicit
  63. Codec ID                                 : A_AAC-2
  64. Duration                                 : 1 h 47 min
  65. Bit rate                                 : 192 kb/s
  66. Channel(s)                               : 6 channels
  67. Channel layout                           : C L R Ls Rs LFE
  68. Sampling rate                            : 48.0 kHz
  69. Frame rate                               : 23.438 FPS (2048 SPF)
  70. Compression mode                         : Lossy
  71. Stream size                              : 147 MiB (12%)
  72. Title                                    : English
  73. Language                                 : English
  74. Default                                  : No
  75. Forced                                   : No
  76.  
  77. Text
  78. ID                                       : 4
  79. Format                                   : PGS
  80. Codec ID                                 : S_HDMV/PGS
  81. Codec ID/Info                            : Picture based subtitle format used on BDs/HD-DVDs
  82. Duration                                 : 1 h 41 min
  83. Bit rate                                 : 59.7 kb/s
  84. Frame rate                               : 0.705 FPS
  85. Count of elements                        : 4290
  86. Stream size                              : 43.3 MiB (4%)
  87. Title                                    : English [PGS]
  88. Language                                 : English
  89. Default                                  : Yes
  90. Forced                                   : No
  91.  
  92. Menu
  93. 00:00:24.357                             : en:Chapter 01
  94. 00:05:38.754                             : en:Chapter 02
  95. 00:11:44.286                             : en:Chapter 03
  96. 00:14:48.929                             : en:Chapter 04
  97. 00:22:38.523                             : en:Chapter 05
  98. 00:32:06.257                             : en:Chapter 06
  99. 00:37:08.517                             : en:Chapter 07
  100. 00:41:26.650                             : en:Chapter 08
  101. 00:48:14.557                             : en:Chapter 09
  102. 00:51:00.807                             : en:Chapter 10
  103. 00:55:34.413                             : en:Chapter 11
  104. 01:01:46.869                             : en:Chapter 12
  105. 01:03:39.815                             : en:Chapter 13
  106. 01:08:22.347                             : en:Chapter 14
  107. 01:12:03.985                             : en:Chapter 15
  108. 01:20:43.963                             : en:Chapter 16
  109. 01:26:54.083                             : en:Chapter 17
  110. 01:30:49.818                             : en:Chapter 18
  111. 01:40:23.058                             : en:Chapter 19
  112. 01:42:28.016                             : en:Chapter 20