The text below is selected, press Ctrl+C to copy to your clipboard. (⌘+C on Mac) No line numbers will be copied.
Theres Something Wrong with the...

20th January 2023 10:57:57 AM | Views: 9
  1. Format                                   : Matroska
  2. Format version                           : Version 4
  3. File size                                : 2.99 GiB
  4. Duration                                 : 1 h 32 min
  5. Overall bit rate                         : 4 641 kb/s
  6. Movie name                               : There's Something Wrong with the Children (2023) REMASTERED DS4K 1080p AMZN WEB-DL x264 English DDP5.1 ESub 2.99GB [MoviezAddiction]
  7. Encoded date                             : UTC 2023-01-20 06:59:17
  8. Writing application                      : mkvmerge v72.0.0 ('Minuano (Six-eight)') 64-bit
  9. Writing library                          : libebml v1.4.4 + libmatroska v1.7.1
  10.  
  11. Video
  12. ID                                       : 1
  13. Format                                   : AVC
  14. Format/Info                              : Advanced Video Codec
  15. Format profile                           : [email protected]
  16. Format settings                          : CABAC / 4 Ref Frames
  17. Format settings, CABAC                   : Yes
  18. Format settings, Reference frames        : 4 frames
  19. Codec ID                                 : V_MPEG4/ISO/AVC
  20. Duration                                 : 1 h 32 min
  21. Bit rate                                 : 4 000 kb/s
  22. Width                                    : 1 920 pixels
  23. Height                                   : 1 038 pixels
  24. Display aspect ratio                     : 1.85:1
  25. Frame rate mode                          : Variable
  26. Frame rate                               : 23.976 FPS
  27. Color space                              : YUV
  28. Chroma subsampling                       : 4:2:0
  29. Bit depth                                : 8 bits
  30. Scan type                                : Progressive
  31. Bits/(Pixel*Frame)                       : 0.084
  32. Stream size                              : 2.58 GiB (86%)
  33. Default                                  : Yes
  34. Forced                                   : No
  35. Color range                              : Limited
  36. Color primaries                          : BT.709
  37. Transfer characteristics                 : BT.709
  38. Matrix coefficients                      : BT.709
  39.  
  40. Audio
  41. ID                                       : 2
  42. Format                                   : E-AC-3
  43. Format/Info                              : Enhanced AC-3
  44. Commercial name                          : Dolby Digital Plus
  45. Codec ID                                 : A_EAC3
  46. Duration                                 : 1 h 32 min
  47. Bit rate mode                            : Constant
  48. Bit rate                                 : 640 kb/s
  49. Channel(s)                               : 6 channels
  50. Channel layout                           : L R C LFE Ls Rs
  51. Sampling rate                            : 48.0 kHz
  52. Frame rate                               : 31.250 FPS (1536 SPF)
  53. Compression mode                         : Lossy
  54. Stream size                              : 422 MiB (14%)
  55. Title                                    : English
  56. Language                                 : English
  57. Service kind                             : Complete Main
  58. Default                                  : Yes
  59. Forced                                   : No
  60.  
  61. Text
  62. ID                                       : 3
  63. Format                                   : UTF-8
  64. Codec ID                                 : S_TEXT/UTF8
  65. Codec ID/Info                            : UTF-8 Plain Text
  66. Duration                                 : 1 h 30 min
  67. Bit rate                                 : 51 b/s
  68. Count of elements                        : 1157
  69. Stream size                              : 34.1 KiB (0%)
  70. Title                                    : English [SRT]
  71. Language                                 : English
  72. Default                                  : Yes
  73. Forced                                   : No