The text below is selected, press Ctrl+C to copy to your clipboard. (⌘+C on Mac) No line numbers will be copied.
Star Wars The Bad Batch...

17th January 2023 09:24:46 AM | Views: 6
  1. Format                                   : Matroska
  2. Format version                           : Version 4
  3. File size                                : 665 MiB
  4. Duration                                 : 21 min 52 s
  5. Overall bit rate                         : 4 253 kb/s
  6. Movie name                               : Star Wars The Bad Batch (2023) S02E01 [Spoils of War] REMASTERED DS4K 1080p DSNP WEB-DL x264 English DDP5.1 ESub 665MB [MoviezAddiction]
  7. Encoded date                             : UTC 2023-01-05 14:39:36
  8. Writing application                      : mkvmerge v72.0.0 ('Minuano (Six-eight)') 64-bit
  9. Writing library                          : libebml v1.4.4 + libmatroska v1.7.1
  10.  
  11. Video
  12. ID                                       : 1
  13. Format                                   : AVC
  14. Format/Info                              : Advanced Video Codec
  15. Format profile                           : [email protected]
  16. Format settings                          : CABAC / 5 Ref Frames
  17. Format settings, CABAC                   : Yes
  18. Format settings, Reference frames        : 5 frames
  19. Codec ID                                 : V_MPEG4/ISO/AVC
  20. Duration                                 : 21 min 51 s
  21. Bit rate                                 : 4 000 kb/s
  22. Width                                    : 1 920 pixels
  23. Height                                   : 816 pixels
  24. Display aspect ratio                     : 2.35:1
  25. Frame rate mode                          : Variable
  26. Frame rate                               : 24.000 FPS
  27. Color space                              : YUV
  28. Chroma subsampling                       : 4:2:0
  29. Bit depth                                : 8 bits
  30. Scan type                                : Progressive
  31. Bits/(Pixel*Frame)                       : 0.106
  32. Stream size                              : 625 MiB (94%)
  33. Default                                  : Yes
  34. Forced                                   : No
  35.  
  36. Audio
  37. ID                                       : 2
  38. Format                                   : E-AC-3
  39. Format/Info                              : Enhanced AC-3
  40. Commercial name                          : Dolby Digital Plus
  41. Codec ID                                 : A_EAC3
  42. Duration                                 : 21 min 52 s
  43. Bit rate mode                            : Constant
  44. Bit rate                                 : 256 kb/s
  45. Channel(s)                               : 6 channels
  46. Channel layout                           : L R C LFE Ls Rs
  47. Sampling rate                            : 48.0 kHz
  48. Frame rate                               : 31.250 FPS (1536 SPF)
  49. Compression mode                         : Lossy
  50. Stream size                              : 40.0 MiB (6%)
  51. Title                                    : English
  52. Language                                 : English
  53. Service kind                             : Complete Main
  54. Default                                  : Yes
  55. Forced                                   : No
  56.  
  57. Text
  58. ID                                       : 3
  59. Format                                   : UTF-8
  60. Codec ID                                 : S_TEXT/UTF8
  61. Codec ID/Info                            : UTF-8 Plain Text
  62. Duration                                 : 20 min 4 s
  63. Bit rate                                 : 54 b/s
  64. Count of elements                        : 225
  65. Stream size                              : 8.05 KiB (0%)
  66. Title                                    : English [SRT]
  67. Language                                 : English
  68. Default                                  : Yes
  69. Forced                                   : No