The text below is selected, press Ctrl+C to copy to your clipboard. (⌘+C on Mac) No line numbers will be copied.
Last Action Hero (1993) 720p...

12th November 2022 04:55:55 PM | Views: 15
  1. Format                                   : Matroska
  2. Format version                           : Version 4
  3. File size                                : 1.41 GiB
  4. Duration                                 : 2 h 10 min
  5. Overall bit rate                         : 1 547 kb/s
  6. Movie name                               : Last Action Hero (1993) 720p BluRay x264 Dual Audio [Hindi TV-DL DDP2.0 + English BD5.1] ESub 1.41GB [MoviezAddiction.life]
  7. Encoded date                             : UTC 2022-11-12 12:07:53
  8. Writing application                      : mkvmerge v71.1.0 ('Fortitude') 64-bit
  9. Writing library                          : libebml v1.4.4 + libmatroska v1.7.1
  10.  
  11. Video
  12. ID                                       : 1
  13. Format                                   : AVC
  14. Format/Info                              : Advanced Video Codec
  15. Format profile                           : [email protected]
  16. Format settings                          : CABAC / 4 Ref Frames
  17. Format settings, CABAC                   : Yes
  18. Format settings, Reference frames        : 4 frames
  19. Codec ID                                 : V_MPEG4/ISO/AVC
  20. Duration                                 : 2 h 10 min
  21. Bit rate                                 : 1 099 kb/s
  22. Width                                    : 1 280 pixels
  23. Height                                   : 534 pixels
  24. Display aspect ratio                     : 2.40:1
  25. Original display aspect ratio            : 2.40:1
  26. Frame rate mode                          : Variable
  27. Frame rate                               : 23.976 (24000/1001) FPS
  28. Color space                              : YUV
  29. Chroma subsampling                       : 4:2:0
  30. Bit depth                                : 8 bits
  31. Scan type                                : Progressive
  32. Bits/(Pixel*Frame)                       : 0.067
  33. Stream size                              : 1.00 GiB (71%)
  34. Default                                  : Yes
  35. Forced                                   : No
  36.  
  37. Audio #1
  38. ID                                       : 2
  39. Format                                   : E-AC-3
  40. Format/Info                              : Enhanced AC-3
  41. Commercial name                          : Dolby Digital Plus
  42. Codec ID                                 : A_EAC3
  43. Duration                                 : 2 h 10 min
  44. Bit rate mode                            : Constant
  45. Bit rate                                 : 224 kb/s
  46. Channel(s)                               : 2 channels
  47. Channel layout                           : L R
  48. Sampling rate                            : 48.0 kHz
  49. Frame rate                               : 31.250 FPS (1536 SPF)
  50. Compression mode                         : Lossy
  51. Delay relative to video                  : -600 ms
  52. Stream size                              : 210 MiB (14%)
  53. Title                                    : Hindi
  54. Language                                 : Hindi
  55. Service kind                             : Complete Main
  56. Default                                  : Yes
  57. Forced                                   : No
  58.  
  59. Audio #2
  60. ID                                       : 3
  61. Format                                   : AAC LC SBR
  62. Format/Info                              : Advanced Audio Codec Low Complexity with Spectral Band Replication
  63. Commercial name                          : HE-AAC
  64. Format settings                          : Explicit
  65. Codec ID                                 : A_AAC-2
  66. Duration                                 : 2 h 10 min
  67. Bit rate                                 : 192 kb/s
  68. Channel(s)                               : 6 channels
  69. Channel layout                           : C L R Ls Rs LFE
  70. Sampling rate                            : 48.0 kHz
  71. Frame rate                               : 23.438 FPS (2048 SPF)
  72. Compression mode                         : Lossy
  73. Delay relative to video                  : -1 s 54 ms
  74. Stream size                              : 179 MiB (12%)
  75. Title                                    : English
  76. Language                                 : English
  77. Default                                  : No
  78. Forced                                   : No
  79.  
  80. Text
  81. ID                                       : 4
  82. Format                                   : PGS
  83. Codec ID                                 : S_HDMV/PGS
  84. Codec ID/Info                            : Picture based subtitle format used on BDs/HD-DVDs
  85. Duration                                 : 2 h 2 min
  86. Bit rate                                 : 33.3 kb/s
  87. Frame rate                               : 0.362 FPS
  88. Count of elements                        : 2658
  89. Stream size                              : 29.2 MiB (2%)
  90. Title                                    : English [PGS]
  91. Language                                 : English
  92. Default                                  : Yes
  93. Forced                                   : No
  94.  
  95. Menu
  96. 00:00:01.654                             : :Introduction
  97. 00:00:14.654                             : :Start
  98. 00:06:39.355                             : :Focus
  99. 00:09:06.488                             : :First Action Hero
  100. 00:11:20.289                             : :Wyle E. Coyote
  101. 00:13:03.090                             : :Tough Guys and Handcuffs
  102. 00:14:48.424                             : :Precinct Reality
  103. 00:15:49.958                             : :A Preview, a Passport and a Warning
  104. 00:18:43.258                             : :Jack Slater IV
  105. 00:19:39.825                             : :An Eye for Evil
  106. 00:21:36.693                             : :Sicilian Funeral Arrangements
  107. 00:22:26.860                             : :Frank's Farewell and Tony's Hello
  108. 00:25:03.461                             : :Bonneville, Desert Eagle, and a Dynamite Drive-By
  109. 00:26:38.961                             : :"Close Your Eyes, Stay Flat, and Don't Move"
  110. 00:28:00.128                             : :No Hand, New Tunes
  111. 00:30:43.495                             : :Playing Chicken
  112. 00:32:11.096                             : :LAPD...Movie-Style
  113. 00:32:51.463                             : :The Guy Who Killed Mozart
  114. 00:34:28.496                             : :Cartoon Cats and Dearest Friends
  115. 00:37:11.863                             : :Perfect Buddy-Movie Potential
  116. 00:38:39.297                             : :10 Minutes to Prove It
  117. 00:40:45.631                             : :Decoder-Ring Magic
  118. 00:42:15.365                             : :The Tinman and the Henchman
  119. 00:44:53.966                             : :Bull's-Eye
  120. 00:45:43.800                             : :A Stretch and a Kiss
  121. 00:47:02.300                             : :Money to Burn and a Newsstand Memory
  122. 00:49:38.834                             : :The Virtue of Silence
  123. 00:52:00.867                             : :The $2000 Payoff and a Red-Smoke Warning
  124. 00:53:08.701                             : :Like Daddy, Like Daughter
  125. 00:54:03.302                             : :Skeezy at the Door and Slater Through the Roof
  126. 00:56:47.469                             : :Chicken on a Bike
  127. 00:59:55.936                             : :An Evening with the Slater Family
  128. 01:01:49.904                             : :Shattered Glass, Smoking Ears and a Funeral Invite
  129. 01:03:26.772                             : :Where Heroes Dare to Dwell
  130. 01:05:59.772                             : :"Leo the Fart Is Gonna Pass Gas One More Time"
  131. 01:07:14.272                             : :Paying Respects and the Classic Movie Mistake
  132. 01:10:49.839                             : :Slater in Front of the Eight-Ball
  133. 01:12:05.740                             : :A Crane, a Wrecking Ball, and a Ticking Corpse
  134. 01:15:35.608                             : :Elevating Firepower
  135. 01:18:23.542                             : :The Pits
  136. 01:20:29.575                             : :360S, 180S and Parallel Worlds
  137. 01:24:23.042                             : :New York City
  138. 01:28:24.442                             : :Worse Things Than Movies
  139. 01:32:22.776                             : :Benedict Tests a Theory
  140. 01:34:48.343                             : :Mozart Lives
  141. 01:38:05.077                             : :Taking Slater Out of the Picture
  142. 01:42:37.411                             : :The Ripper Goes to the Premiere
  143. 01:45:34.745                             : :Seeing Double
  144. 01:47:22.179                             : :On the Roof, Over the Edge and 2000 Volts
  145. 01:51:29.212                             : :A World Where the Bad Guys Can Win
  146. 01:54:36.712                             : :"We Gotta Get Him Back to the Movies"
  147. 01:58:55.979                             : :Movie Magic
  148. 01:59:48.646                             : :Not Even a Flesh Wound
  149. 02:02:09.080                             : :A Hero, a Script and the Comic Relief
  150. 02:03:43.447                             : :End Credits