The text below is selected, press Ctrl+C to copy to your clipboard. (⌘+C on Mac) No line numbers will be copied.
The Croods (2013) 720p BluRay...

23rd November 2022 05:13:13 AM | Views: 18
  1. Format                                   : Matroska
  2. Format version                           : Version 4
  3. File size                                : 1.04 GiB
  4. Duration                                 : 1 h 38 min
  5. Overall bit rate                         : 1 505 kb/s
  6. Movie name                               : The Croods (2013) 720p BluRay x264 Dual Audio [Hindi BD5.1 + English BD5.1] ESub 1.03GB [MoviezAddiction.life]
  7. Encoded date                             : UTC 2022-11-23 00:19:15
  8. Writing application                      : mkvmerge v72.0.0 ('Minuano (Six-eight)') 64-bit
  9. Writing library                          : libebml v1.4.4 + libmatroska v1.7.1
  10.  
  11. Video
  12. ID                                       : 1
  13. Format                                   : AVC
  14. Format/Info                              : Advanced Video Codec
  15. Format profile                           : [email protected]
  16. Format settings                          : CABAC / 4 Ref Frames
  17. Format settings, CABAC                   : Yes
  18. Format settings, Reference frames        : 4 frames
  19. Codec ID                                 : V_MPEG4/ISO/AVC
  20. Duration                                 : 1 h 38 min
  21. Bit rate                                 : 1 099 kb/s
  22. Width                                    : 1 280 pixels
  23. Height                                   : 544 pixels
  24. Display aspect ratio                     : 2.35:1
  25. Frame rate mode                          : Variable
  26. Frame rate                               : 23.976 FPS
  27. Color space                              : YUV
  28. Chroma subsampling                       : 4:2:0
  29. Bit depth                                : 8 bits
  30. Scan type                                : Progressive
  31. Bits/(Pixel*Frame)                       : 0.066
  32. Stream size                              : 775 MiB (73%)
  33. Default                                  : Yes
  34. Forced                                   : No
  35.  
  36. Audio #1
  37. ID                                       : 2
  38. Format                                   : AAC LC SBR
  39. Format/Info                              : Advanced Audio Codec Low Complexity with Spectral Band Replication
  40. Commercial name                          : HE-AAC
  41. Format settings                          : Explicit
  42. Codec ID                                 : A_AAC-2
  43. Duration                                 : 1 h 38 min
  44. Bit rate                                 : 192 kb/s
  45. Channel(s)                               : 6 channels
  46. Channel layout                           : C L R Ls Rs LFE
  47. Sampling rate                            : 48.0 kHz
  48. Frame rate                               : 23.438 FPS (2048 SPF)
  49. Compression mode                         : Lossy
  50. Delay relative to video                  : -1 s 708 ms
  51. Stream size                              : 134 MiB (13%)
  52. Title                                    : Hindi
  53. Language                                 : Hindi
  54. Default                                  : Yes
  55. Forced                                   : No
  56.  
  57. Audio #2
  58. ID                                       : 3
  59. Format                                   : AAC LC SBR
  60. Format/Info                              : Advanced Audio Codec Low Complexity with Spectral Band Replication
  61. Commercial name                          : HE-AAC
  62. Format settings                          : Explicit
  63. Codec ID                                 : A_AAC-2
  64. Duration                                 : 1 h 38 min
  65. Bit rate                                 : 192 kb/s
  66. Channel(s)                               : 6 channels
  67. Channel layout                           : C L R Ls Rs LFE
  68. Sampling rate                            : 48.0 kHz
  69. Frame rate                               : 23.438 FPS (2048 SPF)
  70. Compression mode                         : Lossy
  71. Delay relative to video                  : -1 s 708 ms
  72. Stream size                              : 134 MiB (13%)
  73. Title                                    : English
  74. Language                                 : English
  75. Default                                  : No
  76. Forced                                   : No
  77.  
  78. Text
  79. ID                                       : 4
  80. Format                                   : PGS
  81. Codec ID                                 : S_HDMV/PGS
  82. Codec ID/Info                            : Picture based subtitle format used on BDs/HD-DVDs
  83. Duration                                 : 1 h 28 min
  84. Bit rate                                 : 25.1 kb/s
  85. Frame rate                               : 0.383 FPS
  86. Count of elements                        : 2042
  87. Stream size                              : 15.9 MiB (2%)
  88. Title                                    : English [PGS]
  89. Language                                 : English
  90. Default                                  : Yes
  91. Forced                                   : No
  92.  
  93. Menu
  94. 00:00:01.708                             : en:Chapter 1
  95. 00:02:38.364                             : en:Chapter 2
  96. 00:04:55.126                             : en:Chapter 3
  97. 00:09:04.625                             : en:Chapter 4
  98. 00:12:17.735                             : en:Chapter 5
  99. 00:14:08.179                             : en:Chapter 6
  100. 00:18:36.405                             : en:Chapter 7
  101. 00:22:00.359                             : en:Chapter 8
  102. 00:23:28.113                             : en:Chapter 9
  103. 00:26:53.151                             : en:Chapter 10
  104. 00:28:40.508                             : en:Chapter 11
  105. 00:30:29.033                             : en:Chapter 12
  106. 00:32:52.010                             : en:Chapter 13
  107. 00:36:06.746                             : en:Chapter 14
  108. 00:38:36.938                             : en:Chapter 15
  109. 00:41:37.910                             : en:Chapter 16
  110. 00:44:42.219                             : en:Chapter 17
  111. 00:48:06.006                             : en:Chapter 18
  112. 00:52:14.337                             : en:Chapter 19
  113. 00:55:20.857                             : en:Chapter 20
  114. 01:00:18.154                             : en:Chapter 21
  115. 01:04:01.461                             : en:Chapter 22
  116. 01:05:52.113                             : en:Chapter 23
  117. 01:08:47.413                             : en:Chapter 24
  118. 01:10:50.661                             : en:Chapter 25
  119. 01:12:40.521                             : en:Chapter 26
  120. 01:14:05.022                             : en:Chapter 27
  121. 01:19:51.952                             : en:Chapter 28
  122. 01:23:13.236                             : en:Chapter 29
  123. 01:25:20.113                             : en:Chapter 30
  124. 01:28:07.697                             : en:Chapter 31
  125. 01:30:05.606                             : en:Chapter 32