The text below is selected, press Ctrl+C to copy to your clipboard. (⌘+C on Mac) No line numbers will be copied.
Last Action Hero (1993) 1080p...

12th November 2022 04:53:51 PM | Views: 22
  1. Format                                   : Matroska
  2. Format version                           : Version 4
  3. File size                                : 3.17 GiB
  4. Duration                                 : 2 h 10 min
  5. Overall bit rate                         : 3 466 kb/s
  6. Movie name                               : Last Action Hero (1993) 1080p BluRay x265 10bit HEVC Dual Audio [Hindi TV-DL DDP2.0 + English DTS 5.1] ESub 3.16GB [MoviezAddiction.life]
  7. Encoded date                             : UTC 2022-11-12 12:08:21
  8. Writing application                      : mkvmerge v71.1.0 ('Fortitude') 64-bit
  9. Writing library                          : libebml v1.4.4 + libmatroska v1.7.1
  10.  
  11. Video
  12. ID                                       : 1
  13. Format                                   : HEVC
  14. Format/Info                              : High Efficiency Video Coding
  15. Format profile                           : Main [email protected]@Main
  16. Codec ID                                 : V_MPEGH/ISO/HEVC
  17. Duration                                 : 2 h 10 min
  18. Bit rate                                 : 1 699 kb/s
  19. Width                                    : 1 920 pixels
  20. Height                                   : 800 pixels
  21. Display aspect ratio                     : 2.40:1
  22. Frame rate mode                          : Variable
  23. Frame rate                               : 23.976 (24000/1001) FPS
  24. Color space                              : YUV
  25. Chroma subsampling                       : 4:2:0
  26. Bit depth                                : 10 bits
  27. Bits/(Pixel*Frame)                       : 0.046
  28. Stream size                              : 1.55 GiB (49%)
  29. Default                                  : Yes
  30. Forced                                   : No
  31.  
  32. Audio #1
  33. ID                                       : 2
  34. Format                                   : E-AC-3
  35. Format/Info                              : Enhanced AC-3
  36. Commercial name                          : Dolby Digital Plus
  37. Codec ID                                 : A_EAC3
  38. Duration                                 : 2 h 10 min
  39. Bit rate mode                            : Constant
  40. Bit rate                                 : 224 kb/s
  41. Channel(s)                               : 2 channels
  42. Channel layout                           : L R
  43. Sampling rate                            : 48.0 kHz
  44. Frame rate                               : 31.250 FPS (1536 SPF)
  45. Compression mode                         : Lossy
  46. Delay relative to video                  : -600 ms
  47. Stream size                              : 210 MiB (6%)
  48. Title                                    : Hindi
  49. Language                                 : Hindi
  50. Service kind                             : Complete Main
  51. Default                                  : Yes
  52. Forced                                   : No
  53.  
  54. Audio #2
  55. ID                                       : 3
  56. Format                                   : DTS
  57. Format/Info                              : Digital Theater Systems
  58. Codec ID                                 : A_DTS
  59. Duration                                 : 2 h 10 min
  60. Bit rate mode                            : Constant
  61. Bit rate                                 : 1 509 kb/s
  62. Channel(s)                               : 6 channels
  63. Channel layout                           : C L R Ls Rs LFE
  64. Sampling rate                            : 48.0 kHz
  65. Frame rate                               : 93.750 FPS (512 SPF)
  66. Bit depth                                : 24 bits
  67. Compression mode                         : Lossy
  68. Delay relative to video                  : -1 s 54 ms
  69. Stream size                              : 1.38 GiB (44%)
  70. Title                                    : English
  71. Language                                 : English
  72. Default                                  : No
  73. Forced                                   : No
  74.  
  75. Text
  76. ID                                       : 4
  77. Format                                   : PGS
  78. Codec ID                                 : S_HDMV/PGS
  79. Codec ID/Info                            : Picture based subtitle format used on BDs/HD-DVDs
  80. Duration                                 : 2 h 2 min
  81. Bit rate                                 : 33.3 kb/s
  82. Frame rate                               : 0.362 FPS
  83. Count of elements                        : 2658
  84. Stream size                              : 29.2 MiB (1%)
  85. Title                                    : English [PGS]
  86. Language                                 : English
  87. Default                                  : Yes
  88. Forced                                   : No
  89.  
  90. Menu
  91. 00:00:01.654                             : :Introduction
  92. 00:00:14.654                             : :Start
  93. 00:06:39.355                             : :Focus
  94. 00:09:06.488                             : :First Action Hero
  95. 00:11:20.289                             : :Wyle E. Coyote
  96. 00:13:03.090                             : :Tough Guys and Handcuffs
  97. 00:14:48.424                             : :Precinct Reality
  98. 00:15:49.958                             : :A Preview, a Passport and a Warning
  99. 00:18:43.258                             : :Jack Slater IV
  100. 00:19:39.825                             : :An Eye for Evil
  101. 00:21:36.693                             : :Sicilian Funeral Arrangements
  102. 00:22:26.860                             : :Frank's Farewell and Tony's Hello
  103. 00:25:03.461                             : :Bonneville, Desert Eagle, and a Dynamite Drive-By
  104. 00:26:38.961                             : :"Close Your Eyes, Stay Flat, and Don't Move"
  105. 00:28:00.128                             : :No Hand, New Tunes
  106. 00:30:43.495                             : :Playing Chicken
  107. 00:32:11.096                             : :LAPD...Movie-Style
  108. 00:32:51.463                             : :The Guy Who Killed Mozart
  109. 00:34:28.496                             : :Cartoon Cats and Dearest Friends
  110. 00:37:11.863                             : :Perfect Buddy-Movie Potential
  111. 00:38:39.297                             : :10 Minutes to Prove It
  112. 00:40:45.631                             : :Decoder-Ring Magic
  113. 00:42:15.365                             : :The Tinman and the Henchman
  114. 00:44:53.966                             : :Bull's-Eye
  115. 00:45:43.800                             : :A Stretch and a Kiss
  116. 00:47:02.300                             : :Money to Burn and a Newsstand Memory
  117. 00:49:38.834                             : :The Virtue of Silence
  118. 00:52:00.867                             : :The $2000 Payoff and a Red-Smoke Warning
  119. 00:53:08.701                             : :Like Daddy, Like Daughter
  120. 00:54:03.302                             : :Skeezy at the Door and Slater Through the Roof
  121. 00:56:47.469                             : :Chicken on a Bike
  122. 00:59:55.936                             : :An Evening with the Slater Family
  123. 01:01:49.904                             : :Shattered Glass, Smoking Ears and a Funeral Invite
  124. 01:03:26.772                             : :Where Heroes Dare to Dwell
  125. 01:05:59.772                             : :"Leo the Fart Is Gonna Pass Gas One More Time"
  126. 01:07:14.272                             : :Paying Respects and the Classic Movie Mistake
  127. 01:10:49.839                             : :Slater in Front of the Eight-Ball
  128. 01:12:05.740                             : :A Crane, a Wrecking Ball, and a Ticking Corpse
  129. 01:15:35.608                             : :Elevating Firepower
  130. 01:18:23.542                             : :The Pits
  131. 01:20:29.575                             : :360S, 180S and Parallel Worlds
  132. 01:24:23.042                             : :New York City
  133. 01:28:24.442                             : :Worse Things Than Movies
  134. 01:32:22.776                             : :Benedict Tests a Theory
  135. 01:34:48.343                             : :Mozart Lives
  136. 01:38:05.077                             : :Taking Slater Out of the Picture
  137. 01:42:37.411                             : :The Ripper Goes to the Premiere
  138. 01:45:34.745                             : :Seeing Double
  139. 01:47:22.179                             : :On the Roof, Over the Edge and 2000 Volts
  140. 01:51:29.212                             : :A World Where the Bad Guys Can Win
  141. 01:54:36.712                             : :"We Gotta Get Him Back to the Movies"
  142. 01:58:55.979                             : :Movie Magic
  143. 01:59:48.646                             : :Not Even a Flesh Wound
  144. 02:02:09.080                             : :A Hero, a Script and the Comic Relief
  145. 02:03:43.447                             : :End Credits