The text below is selected, press Ctrl+C to copy to your clipboard. (⌘+C on Mac) No line numbers will be copied.
Where the Crawdads Sing (2022)...

21st January 2023 06:28:22 AM | Views: 5
  1. Format                                   : Matroska
  2. Format version                           : Version 4
  3. File size                                : 24.0 GiB
  4. Duration                                 : 2 h 5 min
  5. Overall bit rate mode                    : Variable
  6. Overall bit rate                         : 27.4 Mb/s
  7. Movie name                               : Where the Crawdads Sing (2022) 2160p iTunes UHD WEB-DL x265 10bit HDR HEVC Dual Audio [Hindi DDP5.1 + English DTS-HD MA 5.1] ESub 23.9GB [MoviezAddiction]
  8. Encoded date                             : UTC 2023-01-21 04:37:42
  9. Writing application                      : mkvmerge v72.0.0 ('Minuano (Six-eight)') 64-bit
  10. Writing library                          : libebml v1.4.4 + libmatroska v1.7.1
  11.  
  12. Video
  13. ID                                       : 1
  14. Format                                   : HEVC
  15. Format/Info                              : High Efficiency Video Coding
  16. Format profile                           : Main [email protected]@High
  17. HDR format                               : SMPTE ST 2094 App 4, Version 1, HDR10+ Profile B compatible
  18. Codec ID                                 : V_MPEGH/ISO/HEVC
  19. Duration                                 : 2 h 5 min
  20. Bit rate                                 : 24.6 Mb/s
  21. Width                                    : 3 840 pixels
  22. Height                                   : 1 600 pixels
  23. Display aspect ratio                     : 2.40:1
  24. Frame rate mode                          : Constant
  25. Frame rate                               : 23.976 FPS
  26. Color space                              : YUV
  27. Chroma subsampling                       : 4:2:0 (Type 2)
  28. Bit depth                                : 10 bits
  29. Bits/(Pixel*Frame)                       : 0.167
  30. Stream size                              : 21.5 GiB (90%)
  31. Default                                  : Yes
  32. Forced                                   : No
  33. Color range                              : Limited
  34. Color primaries                          : BT.2020
  35. Transfer characteristics                 : PQ
  36. Matrix coefficients                      : BT.2020 non-constant
  37. Mastering display color primaries        : BT.2020
  38. Mastering display luminance              : min: 0.0050 cd/m2, max: 1000 cd/m2
  39. Maximum Content Light Level              : 1089 cd/m2
  40. Maximum Frame-Average Light Level        : 144 cd/m2
  41.  
  42. Audio #1
  43. ID                                       : 2
  44. Format                                   : E-AC-3
  45. Format/Info                              : Enhanced AC-3
  46. Commercial name                          : Dolby Digital Plus
  47. Codec ID                                 : A_EAC3
  48. Duration                                 : 2 h 5 min
  49. Bit rate mode                            : Constant
  50. Bit rate                                 : 640 kb/s
  51. Channel(s)                               : 6 channels
  52. Channel layout                           : L R C LFE Ls Rs
  53. Sampling rate                            : 48.0 kHz
  54. Frame rate                               : 31.250 FPS (1536 SPF)
  55. Compression mode                         : Lossy
  56. Delay relative to video                  : 24 ms
  57. Stream size                              : 574 MiB (2%)
  58. Title                                    : Hindi
  59. Language                                 : Hindi
  60. Service kind                             : Complete Main
  61. Default                                  : Yes
  62. Forced                                   : No
  63.  
  64. Audio #2
  65. ID                                       : 3
  66. ID in the original source medium         : 4352 (0x1100)
  67. Format                                   : DTS XLL
  68. Format/Info                              : Digital Theater Systems
  69. Commercial name                          : DTS-HD Master Audio
  70. Codec ID                                 : A_DTS
  71. Duration                                 : 2 h 5 min
  72. Bit rate mode                            : Variable
  73. Bit rate                                 : 2 126 kb/s
  74. Channel(s)                               : 6 channels
  75. Channel layout                           : C L R Ls Rs LFE
  76. Sampling rate                            : 48.0 kHz
  77. Frame rate                               : 93.750 FPS (512 SPF)
  78. Bit depth                                : 16 bits
  79. Compression mode                         : Lossless
  80. Delay relative to video                  : -1 s 26 ms
  81. Stream size                              : 1.86 GiB (8%)
  82. Title                                    : English
  83. Language                                 : English
  84. Default                                  : No
  85. Forced                                   : No
  86. Original source medium                   : Blu-ray
  87.  
  88. Text
  89. ID                                       : 4
  90. Format                                   : PGS
  91. Codec ID                                 : S_HDMV/PGS
  92. Codec ID/Info                            : Picture based subtitle format used on BDs/HD-DVDs
  93. Duration                                 : 1 h 59 min
  94. Bit rate                                 : 31.1 kb/s
  95. Frame rate                               : 0.359 FPS
  96. Count of elements                        : 2576
  97. Stream size                              : 26.7 MiB (0%)
  98. Title                                    : English [PGS]
  99. Language                                 : English
  100. Default                                  : Yes
  101. Forced                                   : No
  102.  
  103. Menu
  104. 00:00:01.026                             : en:Chapter 1
  105. 00:08:46.217                             : en:Chapter 2
  106. 00:15:26.993                             : en:Chapter 3
  107. 00:22:14.984                             : en:Chapter 4
  108. 00:29:13.860                             : en:Chapter 5
  109. 00:36:34.342                             : en:Chapter 6
  110. 00:46:40.364                             : en:Chapter 7
  111. 00:54:07.686                             : en:Chapter 8
  112. 01:00:52.257                             : en:Chapter 9
  113. 01:06:54.327                             : en:Chapter 10
  114. 01:15:51.489                             : en:Chapter 11
  115. 01:22:20.127                             : en:Chapter 12
  116. 01:29:24.467                             : en:Chapter 13
  117. 01:36:24.178                             : en:Chapter 14
  118. 01:43:37.361                             : en:Chapter 15
  119. 01:53:25.115                             : en:Chapter 16
  120. 02:01:00.653                             : en:Chapter 17