The text below is selected, press Ctrl+C to copy to your clipboard. (⌘+C on Mac) No line numbers will be copied.
The Last Samurai (2003) 480p

14th September 2020 02:25:53 PM | Views: 19
  1. Format                                   : Matroska
  2. Format version                           : Version 4
  3. File size                                : 609 MiB
  4. Duration                                 : 2 h 34 min
  5. Overall bit rate                         : 553 kb/s
  6. Movie name                               : The Last Samurai (2003) 480p Bluray x264 Dual Audio [ Hindi DD2.0 + English DD2.0 ] ESubs [www.MoviezAddiction.space]
  7. Encoded date                             : UTC 2020-09-14 12:10:50
  8. Writing application                      : mkvmerge v48.0.0 ('Fortress Around Your Heart') 64-bit
  9. Writing library                          : libebml v1.4.0 + libmatroska v1.6.0
  10. Encoded by                               : Pahe.in™ Team
  11.  
  12. Video
  13. ID                                       : 1
  14. Format                                   : AVC
  15. Format/Info                              : Advanced Video Codec
  16. Format profile                           : [email protected]
  17. Format settings                          : CABAC / 5 Ref Frames
  18. Format settings, CABAC                   : Yes
  19. Format settings, Reference frames        : 5 frames
  20. Codec ID                                 : V_MPEG4/ISO/AVC
  21. Duration                                 : 2 h 34 min
  22. Bit rate                                 : 441 kb/s
  23. Width                                    : 864 pixels
  24. Height                                   : 356 pixels
  25. Display aspect ratio                     : 2.40:1
  26. Frame rate mode                          : Constant
  27. Frame rate                               : 23.976 (24000/1001) FPS
  28. Color space                              : YUV
  29. Chroma subsampling                       : 4:2:0
  30. Bit depth                                : 8 bits
  31. Scan type                                : Progressive
  32. Bits/(Pixel*Frame)                       : 0.060
  33. Stream size                              : 486 MiB (80%)
  34. Title                                    : [www.MoviezAddiction.space]
  35. Writing library                          : x264 core 152 r2851 ba24899
  36. Encoding settings                        : cabac=1 / ref=5 / deblock=1:-1:-1 / analyse=0x3:0x113 / me=umh / subme=8 / psy=1 / psy_rd=1.00:0.15 / mixed_ref=1 / me_range=16 / chroma_me=1 / trellis=2 / 8x8dct=1 / cqm=0 / deadzone=21,11 / fast_pskip=1 / chroma_qp_offset=-3 / threads=11 / lookahead_threads=1 / sliced_threads=0 / nr=0 / decimate=1 / interlaced=0 / bluray_compat=0 / constrained_intra=0 / bframes=3 / b_pyramid=2 / b_adapt=1 / b_bias=0 / direct=3 / weightb=1 / open_gop=0 / weightp=2 / keyint=250 / keyint_min=23 / scenecut=40 / intra_refresh=0 / rc_lookahead=50 / rc=2pass / mbtree=1 / bitrate=441 / ratetol=1.0 / qcomp=0.60 / qpmin=0 / qpmax=69 / qpstep=4 / cplxblur=20.0 / qblur=0.5 / vbv_maxrate=7500 / vbv_bufsize=9000 / nal_hrd=none / filler=0 / ip_ratio=1.40 / aq=3:0.80
  37. Default                                  : Yes
  38. Forced                                   : No
  39. Color range                              : Limited
  40. Color primaries                          : BT.709
  41. Matrix coefficients                      : BT.709
  42.  
  43. Audio #1
  44. ID                                       : 2
  45. Format                                   : AAC LC SBR
  46. Format/Info                              : Advanced Audio Codec Low Complexity with Spectral Band Replication
  47. Commercial name                          : HE-AAC
  48. Format settings                          : Explicit
  49. Codec ID                                 : A_AAC-2
  50. Duration                                 : 2 h 34 min
  51. Bit rate                                 : 55.7 kb/s
  52. Channel(s)                               : 2 channels
  53. Channel layout                           : L R
  54. Sampling rate                            : 48.0 kHz
  55. Frame rate                               : 23.438 FPS (2048 SPF)
  56. Compression mode                         : Lossy
  57. Delay relative to video                  : 31 ms
  58. Stream size                              : 61.5 MiB (10%)
  59. Title                                    : [www.MoviezAddiction.space]
  60. Language                                 : English
  61. Default                                  : No
  62. Forced                                   : No
  63.  
  64. Audio #2
  65. ID                                       : 5
  66. Format                                   : AAC LC
  67. Format/Info                              : Advanced Audio Codec Low Complexity
  68. Codec ID                                 : A_AAC-2
  69. Duration                                 : 2 h 34 min
  70. Bit rate                                 : 53.4 kb/s
  71. Channel(s)                               : 2 channels
  72. Channel layout                           : L R
  73. Sampling rate                            : 48.0 kHz
  74. Frame rate                               : 46.875 FPS (1024 SPF)
  75. Compression mode                         : Lossy
  76. Stream size                              : 58.9 MiB (10%)
  77. Title                                    : [www.MoviezAddiction.space]
  78. Language                                 : Hindi
  79. Default                                  : Yes
  80. Forced                                   : Yes
  81.  
  82. Text #1
  83. ID                                       : 3
  84. Format                                   : UTF-8
  85. Codec ID                                 : S_TEXT/UTF8
  86. Codec ID/Info                            : UTF-8 Plain Text
  87. Duration                                 : 2 h 33 min
  88. Bit rate                                 : 22 b/s
  89. Count of elements                        : 734
  90. Stream size                              : 25.4 KiB (0%)
  91. Title                                    : [www.MoviezAddiction.space]
  92. Language                                 : English
  93. Default                                  : Yes
  94. Forced                                   : No
  95.  
  96. Text #2
  97. ID                                       : 4
  98. Format                                   : UTF-8
  99. Codec ID                                 : S_TEXT/UTF8
  100. Codec ID/Info                            : UTF-8 Plain Text
  101. Duration                                 : 2 h 33 min
  102. Bit rate                                 : 26 b/s
  103. Count of elements                        : 927
  104. Stream size                              : 29.7 KiB (0%)
  105. Title                                    : [www.MoviezAddiction.space]
  106. Language                                 : English
  107. Default                                  : No
  108. Forced                                   : No