The text below is selected, press Ctrl+C to copy to your clipboard. (⌘+C on Mac) No line numbers will be copied.
Oldboy (2013) 1080p BluRay x264...

5th November 2022 02:57:40 PM | Views: 23
  1. Format                                   : Matroska
  2. Format version                           : Version 4
  3. File size                                : 5.38 GiB
  4. Duration                                 : 1 h 43 min
  5. Overall bit rate mode                    : Variable
  6. Overall bit rate                         : 7 423 kb/s
  7. Movie name                               : Oldboy (2013) 1080p BluRay x264 English DTS-HD MA 5.1 ESub 5.37GB [MoviezAddiction.life]
  8. Encoded date                             : UTC 2022-11-03 22:58:55
  9. Writing application                      : mkvmerge v71.1.0 ('Fortitude') 64-bit
  10. Writing library                          : libebml v1.4.4 + libmatroska v1.7.1
  11.  
  12. Video
  13. ID                                       : 1
  14. Format                                   : AVC
  15. Format/Info                              : Advanced Video Codec
  16. Format profile                           : [email protected]
  17. Format settings                          : CABAC / 5 Ref Frames
  18. Format settings, CABAC                   : Yes
  19. Format settings, Reference frames        : 5 frames
  20. Codec ID                                 : V_MPEG4/ISO/AVC
  21. Duration                                 : 1 h 43 min
  22. Bit rate                                 : 4 000 kb/s
  23. Width                                    : 1 920 pixels
  24. Height                                   : 800 pixels
  25. Display aspect ratio                     : 2.40:1
  26. Frame rate mode                          : Variable
  27. Frame rate                               : 23.976 (24000/1001) FPS
  28. Color space                              : YUV
  29. Chroma subsampling                       : 4:2:0
  30. Bit depth                                : 8 bits
  31. Scan type                                : Progressive
  32. Bits/(Pixel*Frame)                       : 0.109
  33. Stream size                              : 2.90 GiB (54%)
  34. Default                                  : Yes
  35. Forced                                   : No
  36.  
  37. Audio
  38. ID                                       : 2
  39. Format                                   : DTS XLL
  40. Format/Info                              : Digital Theater Systems
  41. Commercial name                          : DTS-HD Master Audio
  42. Codec ID                                 : A_DTS
  43. Duration                                 : 1 h 43 min
  44. Bit rate mode                            : Variable
  45. Bit rate                                 : 3 397 kb/s
  46. Channel(s)                               : 6 channels
  47. Channel layout                           : C L R Ls Rs LFE
  48. Sampling rate                            : 48.0 kHz
  49. Frame rate                               : 93.750 FPS (512 SPF)
  50. Bit depth                                : 24 bits
  51. Compression mode                         : Lossless
  52. Stream size                              : 2.46 GiB (46%)
  53. Title                                    : English
  54. Language                                 : English
  55. Default                                  : Yes
  56. Forced                                   : No
  57.  
  58. Text
  59. ID                                       : 3
  60. Format                                   : PGS
  61. Codec ID                                 : S_HDMV/PGS
  62. Codec ID/Info                            : Picture based subtitle format used on BDs/HD-DVDs
  63. Duration                                 : 1 h 37 min
  64. Bit rate                                 : 26.7 kb/s
  65. Frame rate                               : 0.359 FPS
  66. Count of elements                        : 2098
  67. Stream size                              : 18.6 MiB (0%)
  68. Title                                    : English [PGS]
  69. Language                                 : English
  70. Default                                  : Yes
  71. Forced                                   : No
  72.  
  73. Menu
  74. 00:00:00.000                             : en:Chapter 1
  75. 00:04:45.118                             : en:Chapter 2
  76. 00:10:13.988                             : en:Chapter 3
  77. 00:16:15.600                             : en:Chapter 4
  78. 00:22:18.712                             : en:Chapter 5
  79. 00:30:30.162                             : en:Chapter 6
  80. 00:34:31.111                             : en:Chapter 7
  81. 00:43:42.370                             : en:Chapter 8
  82. 00:52:15.424                             : en:Chapter 9
  83. 00:56:28.677                             : en:Chapter 10
  84. 01:04:09.512                             : en:Chapter 11
  85. 01:10:00.488                             : en:Chapter 12
  86. 01:17:15.047                             : en:Chapter 13
  87. 01:22:37.411                             : en:Chapter 14
  88. 01:29:46.881                             : en:Chapter 15
  89. 01:37:15.580                             : en:Chapter 16