The text below is selected, press Ctrl+C to copy to your clipboard. (⌘+C on Mac) No line numbers will be copied.
Alexander (2004) TC 1080p BluRay...

8th November 2022 01:45:02 AM | Views: 21
  1. Format                                   : Matroska
  2. Format version                           : Version 4
  3. File size                                : 7.70 GiB
  4. Duration                                 : 2 h 55 min
  5. Overall bit rate                         : 6 285 kb/s
  6. Movie name                               : Alexander (2004) TC 1080p BluRay x264 Dual Audio [Hindi VCD DD2.0 + English DTS-HD HR 5.1] ESub 7.69GB [MoviezAddiction.life]
  7. Encoded date                             : UTC 2022-11-07 12:57:54
  8. Writing application                      : mkvmerge v71.1.0 ('Fortitude') 64-bit
  9. Writing library                          : libebml v1.4.4 + libmatroska v1.7.1
  10.  
  11. Video
  12. ID                                       : 1
  13. Format                                   : AVC
  14. Format/Info                              : Advanced Video Codec
  15. Format profile                           : [email protected]
  16. Format settings                          : CABAC / 5 Ref Frames
  17. Format settings, CABAC                   : Yes
  18. Format settings, Reference frames        : 5 frames
  19. Codec ID                                 : V_MPEG4/ISO/AVC
  20. Duration                                 : 2 h 55 min
  21. Bit rate                                 : 4 000 kb/s
  22. Width                                    : 1 920 pixels
  23. Height                                   : 820 pixels
  24. Display aspect ratio                     : 2.35:1
  25. Frame rate mode                          : Variable
  26. Frame rate                               : 23.976 (24000/1001) FPS
  27. Color space                              : YUV
  28. Chroma subsampling                       : 4:2:0
  29. Bit depth                                : 8 bits
  30. Scan type                                : Progressive
  31. Bits/(Pixel*Frame)                       : 0.106
  32. Stream size                              : 4.90 GiB (64%)
  33. Default                                  : Yes
  34. Forced                                   : No
  35. Color range                              : Limited
  36. Color primaries                          : BT.709
  37. Transfer characteristics                 : BT.709
  38. Matrix coefficients                      : BT.709
  39.  
  40. Audio #1
  41. ID                                       : 2
  42. Format                                   : AC-3
  43. Format/Info                              : Audio Coding 3
  44. Commercial name                          : Dolby Digital
  45. Format settings                          : Dolby Surround
  46. Codec ID                                 : A_AC3
  47. Duration                                 : 2 h 55 min
  48. Bit rate mode                            : Constant
  49. Bit rate                                 : 192 kb/s
  50. Channel(s)                               : 2 channels
  51. Channel layout                           : L R
  52. Sampling rate                            : 48.0 kHz
  53. Frame rate                               : 31.250 FPS (1536 SPF)
  54. Compression mode                         : Lossy
  55. Stream size                              : 241 MiB (3%)
  56. Title                                    : Hindi
  57. Language                                 : Hindi
  58. Service kind                             : Complete Main
  59. Default                                  : Yes
  60. Forced                                   : No
  61.  
  62. Audio #2
  63. ID                                       : 3
  64. Format                                   : DTS XBR
  65. Format/Info                              : Digital Theater Systems
  66. Commercial name                          : DTS-HD High Resolution Audio
  67. Codec ID                                 : A_DTS
  68. Duration                                 : 2 h 55 min
  69. Bit rate mode                            : Constant
  70. Bit rate                                 : 2 046 kb/s
  71. Channel(s)                               : 6 channels
  72. Channel layout                           : C L R Ls Rs LFE
  73. Sampling rate                            : 48.0 kHz
  74. Frame rate                               : 93.750 FPS (512 SPF)
  75. Bit depth                                : 16 bits
  76. Compression mode                         : Lossy
  77. Stream size                              : 2.51 GiB (33%)
  78. Title                                    : English
  79. Language                                 : English
  80. Default                                  : No
  81. Forced                                   : No
  82.  
  83. Text
  84. ID                                       : 4
  85. Format                                   : PGS
  86. Codec ID                                 : S_HDMV/PGS
  87. Codec ID/Info                            : Picture based subtitle format used on BDs/HD-DVDs
  88. Duration                                 : 2 h 44 min
  89. Bit rate                                 : 48.6 kb/s
  90. Frame rate                               : 0.345 FPS
  91. Count of elements                        : 3406
  92. Stream size                              : 57.2 MiB (1%)
  93. Title                                    : English [PGS]
  94. Language                                 : English
  95. Default                                  : Yes
  96. Forced                                   : No
  97.  
  98. Menu
  99. 00:00:00.000                             : en:Chapter 01
  100. 00:12:13.983                             : en:Chapter 02
  101. 00:22:10.329                             : en:Chapter 03
  102. 00:30:27.200                             : en:Chapter 04
  103. 00:44:54.233                             : en:Chapter 05
  104. 01:09:56.567                             : en:Chapter 06
  105. 01:23:46.146                             : en:Chapter 07
  106. 01:37:48.696                             : en:Chapter 08
  107. 01:58:41.239                             : en:Chapter 09
  108. 02:18:00.397                             : en:Chapter 10
  109. 02:32:12.999                             : en:Chapter 11
  110. 02:44:12.801                             : en:Chapter 12