The text below is selected, press Ctrl+C to copy to your clipboard. (⌘+C on Mac) No line numbers will be copied.
The Santa Clauses (2022) S01E01...

23rd November 2022 08:23:52 AM | Views: 13
  1. Format                                   : Matroska
  2. Format version                           : Version 4
  3. File size                                : 1.02 GiB
  4. Duration                                 : 30 min 41 s
  5. Overall bit rate                         : 4 766 kb/s
  6. Movie name                               : The Santa Clauses (2022) S01E01 [Good to Ho] REMASTERED DS4K 1080p DSNP WEB-DL x264 English DDP5.1 Atmos ESub 1.02GB [MoviezAddiction.life]
  7. Encoded date                             : UTC 2022-11-23 06:47:06
  8. Writing application                      : mkvmerge v72.0.0 ('Minuano (Six-eight)') 64-bit
  9. Writing library                          : libebml v1.4.4 + libmatroska v1.7.1
  10.  
  11. Video
  12. ID                                       : 1
  13. Format                                   : AVC
  14. Format/Info                              : Advanced Video Codec
  15. Format profile                           : [email protected]
  16. Format settings                          : CABAC / 4 Ref Frames
  17. Format settings, CABAC                   : Yes
  18. Format settings, Reference frames        : 4 frames
  19. Codec ID                                 : V_MPEG4/ISO/AVC
  20. Duration                                 : 30 min 40 s
  21. Bit rate                                 : 4 000 kb/s
  22. Width                                    : 1 920 pixels
  23. Height                                   : 872 pixels
  24. Display aspect ratio                     : 2.2:1
  25. Frame rate mode                          : Variable
  26. Frame rate                               : 23.976 FPS
  27. Color space                              : YUV
  28. Chroma subsampling                       : 4:2:0
  29. Bit depth                                : 8 bits
  30. Scan type                                : Progressive
  31. Bits/(Pixel*Frame)                       : 0.100
  32. Stream size                              : 877 MiB (84%)
  33. Default                                  : Yes
  34. Forced                                   : No
  35. Color range                              : Limited
  36. Color primaries                          : BT.709
  37. Transfer characteristics                 : BT.709
  38. Matrix coefficients                      : BT.709
  39.  
  40. Audio
  41. ID                                       : 2
  42. Format                                   : E-AC-3 JOC
  43. Format/Info                              : Enhanced AC-3 with Joint Object Coding
  44. Commercial name                          : Dolby Digital Plus with Dolby Atmos
  45. Codec ID                                 : A_EAC3
  46. Duration                                 : 30 min 41 s
  47. Bit rate mode                            : Constant
  48. Bit rate                                 : 768 kb/s
  49. Channel(s)                               : 6 channels
  50. Channel layout                           : L R C LFE Ls Rs
  51. Sampling rate                            : 48.0 kHz
  52. Frame rate                               : 31.250 FPS (1536 SPF)
  53. Compression mode                         : Lossy
  54. Stream size                              : 169 MiB (16%)
  55. Title                                    : English
  56. Language                                 : English
  57. Service kind                             : Complete Main
  58. Default                                  : Yes
  59. Forced                                   : No
  60. Complexity index                         : 16
  61. Number of dynamic objects                : 15
  62. Bed channel count                        : 1 channel
  63. Bed channel configuration                : LFE
  64.  
  65. Text
  66. ID                                       : 3
  67. Format                                   : UTF-8
  68. Codec ID                                 : S_TEXT/UTF8
  69. Codec ID/Info                            : UTF-8 Plain Text
  70. Duration                                 : 28 min 30 s
  71. Bit rate                                 : 98 b/s
  72. Frame rate                               : 0.343 FPS
  73. Count of elements                        : 587
  74. Stream size                              : 20.6 KiB (0%)
  75. Title                                    : English [SRT]
  76. Language                                 : English
  77. Default                                  : Yes
  78. Forced                                   : No