The text below is selected, press Ctrl+C to copy to your clipboard. (⌘+C on Mac) No line numbers will be copied.
Suicide Squad (2016) EXTENDED 1080p...

16th January 2023 02:57:22 PM | Views: 9
  1. Format                                   : Matroska
  2. Format version                           : Version 4
  3. File size                                : 27.1 GiB
  4. Duration                                 : 2 h 14 min
  5. Overall bit rate mode                    : Variable
  6. Overall bit rate                         : 28.8 Mb/s
  7. Movie name                               : Suicide Squad (2016) EXTENDED 1080p BluRay REMUX x264 Dual Audio [Hindi SDTV-DL DD2.0 + English TrueHD 7.1 Atmos] ESub 27.0GB [MoviezAddiction]
  8. Encoded date                             : UTC 2023-01-16 03:07:24
  9. Writing application                      : mkvmerge v72.0.0 ('Minuano (Six-eight)') 64-bit
  10. Writing library                          : libebml v1.4.4 + libmatroska v1.7.1
  11.  
  12. Video
  13. ID                                       : 1
  14. Format                                   : AVC
  15. Format/Info                              : Advanced Video Codec
  16. Format profile                           : [email protected]
  17. Format settings                          : CABAC / 4 Ref Frames
  18. Format settings, CABAC                   : Yes
  19. Format settings, Reference frames        : 4 frames
  20. Codec ID                                 : V_MPEG4/ISO/AVC
  21. Duration                                 : 2 h 14 min
  22. Bit rate mode                            : Variable
  23. Bit rate                                 : 24.8 Mb/s
  24. Maximum bit rate                         : 30.0 Mb/s
  25. Width                                    : 1 920 pixels
  26. Height                                   : 1 080 pixels
  27. Display aspect ratio                     : 16:9
  28. Frame rate mode                          : Constant
  29. Frame rate                               : 23.976 (24000/1001) FPS
  30. Color space                              : YUV
  31. Chroma subsampling                       : 4:2:0
  32. Bit depth                                : 8 bits
  33. Scan type                                : Progressive
  34. Bits/(Pixel*Frame)                       : 0.500
  35. Stream size                              : 23.4 GiB (86%)
  36. Default                                  : Yes
  37. Forced                                   : No
  38.  
  39. Audio #1
  40. ID                                       : 2
  41. Format                                   : AAC LC
  42. Format/Info                              : Advanced Audio Codec Low Complexity
  43. Codec ID                                 : A_AAC-2
  44. Duration                                 : 2 h 14 min
  45. Bit rate                                 : 128 kb/s
  46. Channel(s)                               : 2 channels
  47. Channel layout                           : L R
  48. Sampling rate                            : 48.0 kHz
  49. Frame rate                               : 46.875 FPS (1024 SPF)
  50. Compression mode                         : Lossy
  51. Stream size                              : 123 MiB (0%)
  52. Title                                    : Hindi
  53. Language                                 : Hindi
  54. Default                                  : Yes
  55. Forced                                   : No
  56.  
  57. Audio #2
  58. ID                                       : 3
  59. Format                                   : MLP FBA 16-ch
  60. Format/Info                              : Meridian Lossless Packing FBA with 16-channel presentation
  61. Commercial name                          : Dolby TrueHD with Dolby Atmos
  62. Codec ID                                 : A_TRUEHD
  63. Duration                                 : 2 h 14 min
  64. Bit rate mode                            : Variable
  65. Bit rate                                 : 3 758 kb/s
  66. Maximum bit rate                         : 5 976 kb/s
  67. Channel(s)                               : 8 channels
  68. Channel layout                           : L R C LFE Ls Rs Lb Rb
  69. Sampling rate                            : 48.0 kHz
  70. Frame rate                               : 1 200.000 FPS (40 SPF)
  71. Compression mode                         : Lossless
  72. Stream size                              : 3.53 GiB (13%)
  73. Title                                    : English
  74. Language                                 : English
  75. Default                                  : No
  76. Forced                                   : No
  77. Number of dynamic objects                : 11
  78. Bed channel count                        : 1 channel
  79. Bed channel configuration                : LFE
  80.  
  81. Text
  82. ID                                       : 4
  83. Format                                   : PGS
  84. Codec ID                                 : S_HDMV/PGS
  85. Codec ID/Info                            : Picture based subtitle format used on BDs/HD-DVDs
  86. Duration                                 : 2 h 13 min
  87. Bit rate                                 : 33.1 kb/s
  88. Frame rate                               : 0.454 FPS
  89. Count of elements                        : 3648
  90. Stream size                              : 31.8 MiB (0%)
  91. Title                                    : English [PGS]
  92. Language                                 : English
  93. Default                                  : Yes
  94. Forced                                   : No
  95.  
  96. Menu
  97. 00:00:00.000                             : en:00:00:00.000
  98. 00:09:08.506                             : en:00:09:08.506
  99. 00:20:22.972                             : en:00:20:22.972
  100. 00:31:14.706                             : en:00:31:14.706
  101. 00:41:04.879                             : en:00:41:04.879
  102. 00:52:21.805                             : en:00:52:21.805
  103. 01:04:48.843                             : en:01:04:48.843
  104. 01:21:12.743                             : en:01:21:12.743
  105. 01:32:11.943                             : en:01:32:11.943
  106. 01:42:57.671                             : en:01:42:57.671
  107. 01:50:58.652                             : en:01:50:58.652
  108. 02:04:04.812                             : en:02:04:04.812