The text below is selected, press Ctrl+C to copy to your clipboard. (⌘+C on Mac) No line numbers will be copied.
The Pianist (2002) 1080p

16th September 2020 08:18:15 AM | Views: 23
  1. Format                                   : Matroska
  2. Format version                           : Version 4
  3. File size                                : 6.15 GiB
  4. Duration                                 : 2 h 28 min
  5. Overall bit rate mode                    : Variable
  6. Overall bit rate                         : 5 924 kb/s
  7. Movie name                               : The Pianist (2002) 1080p Bluray x264 Dual Audio [ Hindi DDP2.0 + English DTS-HD5.1 ] ESub [www.MoviezAddiction.space]
  8. Encoded date                             : UTC 2020-09-16 06:00:22
  9. Writing application                      : mkvmerge v48.0.0 ('Fortress Around Your Heart') 64-bit
  10. Writing library                          : libebml v1.4.0 + libmatroska v1.6.0
  11.  
  12. Video
  13. ID                                       : 3
  14. Format                                   : AVC
  15. Format/Info                              : Advanced Video Codec
  16. Format profile                           : [email protected]
  17. Format settings                          : CABAC / 5 Ref Frames
  18. Format settings, CABAC                   : Yes
  19. Format settings, Reference frames        : 5 frames
  20. Codec ID                                 : V_MPEG4/ISO/AVC
  21. Duration                                 : 2 h 28 min
  22. Bit rate                                 : 4 002 kb/s
  23. Width                                    : 1 920 pixels
  24. Height                                   : 1 040 pixels
  25. Display aspect ratio                     : 1.85:1
  26. Frame rate mode                          : Constant
  27. Frame rate                               : 23.976 (24000/1001) FPS
  28. Color space                              : YUV
  29. Chroma subsampling                       : 4:2:0
  30. Bit depth                                : 8 bits
  31. Scan type                                : Progressive
  32. Bits/(Pixel*Frame)                       : 0.084
  33. Stream size                              : 4.16 GiB (68%)
  34. Title                                    : [www.MoviezAddiction.space]
  35. Default                                  : Yes
  36. Forced                                   : No
  37.  
  38. Audio #1
  39. ID                                       : 1
  40. Format                                   : E-AC-3
  41. Format/Info                              : Enhanced AC-3
  42. Commercial name                          : Dolby Digital Plus
  43. Codec ID                                 : A_EAC3
  44. Duration                                 : 2 h 28 min
  45. Bit rate mode                            : Constant
  46. Bit rate                                 : 128 kb/s
  47. Channel(s)                               : 2 channels
  48. Channel layout                           : L R
  49. Sampling rate                            : 48.0 kHz
  50. Frame rate                               : 31.250 FPS (1536 SPF)
  51. Compression mode                         : Lossy
  52. Delay relative to video                  : 25 ms
  53. Stream size                              : 136 MiB (2%)
  54. Title                                    : [www.MoviezAddiction.space]
  55. Language                                 : Hindi
  56. Service kind                             : Complete Main
  57. Default                                  : Yes
  58. Forced                                   : Yes
  59.  
  60. Audio #2
  61. ID                                       : 4
  62. Format                                   : DTS XLL
  63. Format/Info                              : Digital Theater Systems
  64. Commercial name                          : DTS-HD Master Audio
  65. Codec ID                                 : A_DTS
  66. Duration                                 : 2 h 28 min
  67. Bit rate mode                            : Variable
  68. Bit rate                                 : 1 791 kb/s
  69. Channel(s)                               : 6 channels
  70. Channel layout                           : C L R Ls Rs LFE
  71. Sampling rate                            : 48.0 kHz
  72. Frame rate                               : 93.750 FPS (512 SPF)
  73. Bit depth                                : 16 bits
  74. Compression mode                         : Lossless
  75. Delay relative to video                  : 1 ms
  76. Stream size                              : 1.86 GiB (30%)
  77. Title                                    : [www.MoviezAddiction.space]
  78. Language                                 : English
  79. Default                                  : No
  80. Forced                                   : No
  81.  
  82. Text
  83. ID                                       : 2
  84. Format                                   : UTF-8
  85. Codec ID                                 : S_TEXT/UTF8
  86. Codec ID/Info                            : UTF-8 Plain Text
  87. Duration                                 : 2 h 19 min
  88. Bit rate                                 : 31 b/s
  89. Count of elements                        : 894
  90. Stream size                              : 32.3 KiB (0%)
  91. Title                                    : [www.MoviezAddiction.space]
  92. Language                                 : English
  93. Default                                  : Yes
  94. Forced                                   : Yes
  95.  
  96. Menu
  97. 00:00:00.000                             : en:00:00:00.000
  98. 00:07:00.393                             : en:00:07:24.944
  99. 00:19:57.628                             : en:00:20:22.179
  100. 00:36:10.433                             : en:00:36:34.984
  101. 00:46:47.278                             : en:00:47:11.829
  102. 01:01:25.489                             : en:01:01:50.040
  103. 01:25:54.164                             : en:01:26:18.715
  104. 01:40:20.613                             : en:01:40:45.164
  105. 01:53:40.913                             : en:01:54:05.464
  106. 02:02:16.594                             : en:02:02:41.145
  107. 02:14:50.639                             : en:02:15:15.190
  108. 02:20:55.379                             : en:02:21:19.930