The text below is selected, press Ctrl+C to copy to your clipboard. (⌘+C on Mac) No line numbers will be copied.
MediaInfo

5th June 2019 01:22:25 AM | Views: 985
  1. Format                      : Matroska
  2. Format version              : Version 4 / Version 2
  3. File size                   : 997 MiB
  4. Duration                    : 2 h 3 min
  5. Overall bit rate            : 1 132 kb/s
  6. Encoded date                : UTC 2019-06-05 01:19:49
  7. Writing application         : mkvmerge v28.2.0 ('The Awakening') 64-bit
  8. Writing library             : libebml v1.3.6 + libmatroska v1.4.9
  9.  
  10. Video
  11. ID                          : 1
  12. Format                      : AVC
  13. Format/Info                 : Advanced Video Codec
  14. Format profile              : [email protected]
  15. Format settings             : CABAC / 5 Ref Frames
  16. Format settings, CABAC      : Yes
  17. Format settings, ReFrames   : 5 frames
  18. Codec ID                    : V_MPEG4/ISO/AVC
  19. Duration                    : 2 h 3 min
  20. Bit rate                    : 1 067 kb/s
  21. Width                       : 1 280 pixels
  22. Height                      : 534 pixels
  23. Display aspect ratio        : 2.40:1
  24. Frame rate mode             : Constant
  25. Frame rate                  : 23.976 (24000/1001) FPS
  26. Color space                 : YUV
  27. Chroma subsampling          : 4:2:0
  28. Bit depth                   : 8 bits
  29. Scan type                   : Progressive
  30. Bits/(Pixel*Frame)          : 0.065
  31. Stream size                 : 939 MiB (94%)
  32. Writing library             : x264 core 157 r2935 545de2f
  33. Encoding settings           : cabac=1 / ref=5 / deblock=1:-1:-1 / analyse=0x3:0x133 / me=umh / subme=9 / psy=1 / psy_rd=1.00:0.10 / mixed_ref=1 / me_range=24 / chroma_me=1 / trellis=2 / 8x8dct=1 / cqm=0 / deadzone=21,11 / fast_pskip=1 / chroma_qp_offset=-3 / threads=17 / lookahead_threads=1 / sliced_threads=0 / nr=0 / decimate=1 / interlaced=0 / bluray_compat=0 / constrained_intra=0 / bframes=3 / b_pyramid=2 / b_adapt=2 / b_bias=0 / direct=3 / weightb=1 / open_gop=0 / weightp=2 / keyint=250 / keyint_min=23 / scenecut=40 / intra_refresh=0 / rc_lookahead=60 / rc=2pass / mbtree=1 / bitrate=1067 / ratetol=1.0 / qcomp=0.60 / qpmin=0 / qpmax=69 / qpstep=4 / cplxblur=20.0 / qblur=0.5 / ip_ratio=1.40 / aq=1:1.00
  34. Default                     : Yes
  35. Forced                      : No
  36.  
  37. Audio
  38. ID                          : 2
  39. Format                      : AAC
  40. Format/Info                 : Advanced Audio Codec
  41. Format profile              : HE-AAC / LC
  42. Format settings             : Explicit
  43. Codec ID                    : A_AAC-2
  44. Duration                    : 2 h 3 min
  45. Bit rate                    : 64.0 kb/s
  46. Channel(s)                  : 2 channels
  47. Channel positions           : Front: L R
  48. Sampling rate               : 48.0 kHz / 24.0 kHz
  49. Frame rate                  : 23.438 FPS (1024 SPF)
  50. Compression mode            : Lossy
  51. Delay relative to video     : 43 ms
  52. Stream size                 : 56.4 MiB (6%)
  53. Language                    : English
  54. Default                     : Yes
  55. Forced                      : No
  56.  
  57. Menu
  58. 00:00:00.000                : en:Chapter 01
  59. 00:10:35.510                : en:Chapter 02
  60. 00:19:17.072                : en:Chapter 03
  61. 00:29:54.417                : en:Chapter 04
  62. 00:42:13.738                : en:Chapter 05
  63. 00:53:04.138                : en:Chapter 06
  64. 01:01:18.172                : en:Chapter 07
  65. 01:15:30.732                : en:Chapter 08
  66. 01:25:33.000                : en:Chapter 09
  67. 01:36:06.216                : en:Chapter 10
  68. 01:46:43.895                : en:Chapter 11
  69. 01:55:54.861                : en:Chapter 12