The text below is selected, press Ctrl+C to copy to your clipboard. (⌘+C on Mac) No line numbers will be copied.
The Room (2019) 1080p

16th September 2020 06:48:35 AM | Views: 10
  1. Format                                   : Matroska
  2. Format version                           : Version 4
  3. File size                                : 4.26 GiB
  4. Duration                                 : 1 h 39 min
  5. Overall bit rate                         : 6 149 kb/s
  6. Movie name                               : The Room (2019) 1080p Bluray x264 Dual Audio [ Hindi DDP5.1 + English DTS5.1 ] ESub [www.MoviezAddiction.space]
  7. Encoded date                             : UTC 2020-09-16 04:11:26
  8. Writing application                      : mkvmerge v48.0.0 ('Fortress Around Your Heart') 64-bit
  9. Writing library                          : libebml v1.4.0 + libmatroska v1.6.0
  10.  
  11. Video
  12. ID                                       : 1
  13. Format                                   : AVC
  14. Format/Info                              : Advanced Video Codec
  15. Format profile                           : [email protected]
  16. Format settings                          : CABAC / 5 Ref Frames
  17. Format settings, CABAC                   : Yes
  18. Format settings, Reference frames        : 5 frames
  19. Codec ID                                 : V_MPEG4/ISO/AVC
  20. Duration                                 : 1 h 39 min
  21. Bit rate                                 : 4 000 kb/s
  22. Width                                    : 1 920 pixels
  23. Height                                   : 800 pixels
  24. Display aspect ratio                     : 2.40:1
  25. Frame rate mode                          : Constant
  26. Frame rate                               : 24.000 FPS
  27. Color space                              : YUV
  28. Chroma subsampling                       : 4:2:0
  29. Bit depth                                : 8 bits
  30. Scan type                                : Progressive
  31. Bits/(Pixel*Frame)                       : 0.109
  32. Stream size                              : 2.77 GiB (65%)
  33. Title                                    : [www.MoviezAddiction.space]
  34. Writing library                          : x264 core 160 r3000 33f9e14
  35. Encoding settings                        : cabac=1 / ref=5 / deblock=1:0:0 / analyse=0x3:0x113 / me=hex / subme=8 / psy=1 / psy_rd=1.00:0.00 / mixed_ref=1 / me_range=16 / chroma_me=1 / trellis=2 / 8x8dct=1 / cqm=0 / deadzone=21,11 / fast_pskip=1 / chroma_qp_offset=-2 / threads=12 / lookahead_threads=2 / sliced_threads=0 / nr=0 / decimate=1 / interlaced=0 / bluray_compat=0 / constrained_intra=0 / bframes=3 / b_pyramid=2 / b_adapt=1 / b_bias=0 / direct=3 / weightb=1 / open_gop=0 / weightp=2 / keyint=250 / keyint_min=24 / scenecut=40 / intra_refresh=0 / rc_lookahead=50 / rc=2pass / mbtree=1 / bitrate=4000 / ratetol=1.0 / qcomp=0.60 / qpmin=0 / qpmax=69 / qpstep=4 / cplxblur=20.0 / qblur=0.5 / ip_ratio=1.40 / aq=1:1.00
  36. Default                                  : Yes
  37. Forced                                   : No
  38.  
  39. Audio #1
  40. ID                                       : 2
  41. Format                                   : DTS
  42. Format/Info                              : Digital Theater Systems
  43. Codec ID                                 : A_DTS
  44. Duration                                 : 1 h 39 min
  45. Bit rate mode                            : Constant
  46. Bit rate                                 : 1 509 kb/s
  47. Channel(s)                               : 6 channels
  48. Channel layout                           : C L R Ls Rs LFE
  49. Sampling rate                            : 48.0 kHz
  50. Frame rate                               : 93.750 FPS (512 SPF)
  51. Bit depth                                : 24 bits
  52. Compression mode                         : Lossy
  53. Stream size                              : 1.05 GiB (25%)
  54. Title                                    : [www.MoviezAddiction.space]
  55. Language                                 : English
  56. Default                                  : No
  57. Forced                                   : No
  58.  
  59. Audio #2
  60. ID                                       : 3
  61. Format                                   : E-AC-3
  62. Format/Info                              : Enhanced AC-3
  63. Commercial name                          : Dolby Digital Plus
  64. Codec ID                                 : A_EAC3
  65. Duration                                 : 1 h 39 min
  66. Bit rate mode                            : Constant
  67. Bit rate                                 : 640 kb/s
  68. Channel(s)                               : 6 channels
  69. Channel layout                           : L R C LFE Ls Rs
  70. Sampling rate                            : 48.0 kHz
  71. Frame rate                               : 31.250 FPS (1536 SPF)
  72. Compression mode                         : Lossy
  73. Stream size                              : 454 MiB (10%)
  74. Title                                    : [www.MoviezAddiction.space]
  75. Language                                 : Hindi
  76. Service kind                             : Complete Main
  77. Default                                  : Yes
  78. Forced                                   : Yes
  79.  
  80. Text
  81. ID                                       : 4
  82. Format                                   : UTF-8
  83. Codec ID                                 : S_TEXT/UTF8
  84. Codec ID/Info                            : UTF-8 Plain Text
  85. Duration                                 : 1 h 38 min
  86. Bit rate                                 : 29 b/s
  87. Count of elements                        : 1219
  88. Stream size                              : 21.3 KiB (0%)
  89. Title                                    : [www.MoviezAddiction.space]
  90. Language                                 : English
  91. Default                                  : Yes
  92. Forced                                   : Yes