The text below is selected, press Ctrl+C to copy to your clipboard. (⌘+C on Mac) No line numbers will be copied.
Anamika (2020) 480p

13th September 2020 07:47:56 PM | Views: 18
  1. Format                                   : Matroska
  2. Format version                           : Version 4
  3. File size                                : 110 MiB
  4. Duration                                 : 40 min 8 s
  5. Overall bit rate                         : 382 kb/s
  6. Movie name                               : Anamika (2020) 480p WEB-DL x264 Hindi DD2.0 ESub 109MB [www.MoviezAddiction.space]
  7. Encoded date                             : UTC 2020-09-10 15:21:56
  8. Writing application                      : mkvmerge v48.0.0 ('Fortress Around Your Heart') 64-bit
  9. Writing library                          : libebml v1.4.0 + libmatroska v1.6.0
  10.  
  11. Video
  12. ID                                       : 1
  13. Format                                   : AVC
  14. Format/Info                              : Advanced Video Codec
  15. Format profile                           : [email protected]
  16. Format settings                          : CABAC / 4 Ref Frames
  17. Format settings, CABAC                   : Yes
  18. Format settings, Reference frames        : 4 frames
  19. Codec ID                                 : V_MPEG4/ISO/AVC
  20. Duration                                 : 40 min 8 s
  21. Bit rate                                 : 350 kb/s
  22. Width                                    : 720 pixels
  23. Height                                   : 376 pixels
  24. Display aspect ratio                     : 1.915
  25. Frame rate mode                          : Constant
  26. Frame rate                               : 25.000 FPS
  27. Color space                              : YUV
  28. Chroma subsampling                       : 4:2:0
  29. Bit depth                                : 8 bits
  30. Scan type                                : Progressive
  31. Bits/(Pixel*Frame)                       : 0.052
  32. Stream size                              : 100 MiB (91%)
  33. Title                                    : [www.MoviezAddiction.space]
  34. Writing library                          : x264 core 160 r3009 4c9b076
  35. Encoding settings                        : cabac=1 / ref=3 / deblock=1:0:0 / analyse=0x1:0x111 / me=hex / subme=7 / psy=1 / psy_rd=1.00:0.00 / mixed_ref=1 / me_range=16 / chroma_me=1 / trellis=1 / 8x8dct=0 / cqm=0 / deadzone=21,11 / fast_pskip=1 / chroma_qp_offset=-2 / threads=12 / lookahead_threads=2 / sliced_threads=0 / nr=0 / decimate=1 / interlaced=0 / bluray_compat=0 / constrained_intra=0 / bframes=3 / b_pyramid=2 / b_adapt=1 / b_bias=0 / direct=1 / weightb=1 / open_gop=0 / weightp=2 / keyint=250 / keyint_min=25 / scenecut=40 / intra_refresh=0 / rc_lookahead=40 / rc=2pass / mbtree=1 / bitrate=350 / ratetol=1.0 / qcomp=0.60 / qpmin=0 / qpmax=69 / qpstep=4 / cplxblur=20.0 / qblur=0.5 / ip_ratio=1.40 / aq=1:1.00
  36. Default                                  : Yes
  37. Forced                                   : No
  38. Color range                              : Limited
  39. Color primaries                          : BT.709
  40. Transfer characteristics                 : BT.709
  41. Matrix coefficients                      : BT.709
  42.  
  43. Audio
  44. ID                                       : 2
  45. Format                                   : AAC LC SBR
  46. Format/Info                              : Advanced Audio Codec Low Complexity with Spectral Band Replication
  47. Commercial name                          : HE-AAC
  48. Format settings                          : Explicit
  49. Codec ID                                 : A_AAC-2
  50. Duration                                 : 40 min 8 s
  51. Bit rate                                 : 30.7 kb/s
  52. Channel(s)                               : 2 channels
  53. Channel layout                           : L R
  54. Sampling rate                            : 48.0 kHz
  55. Frame rate                               : 23.438 FPS (2048 SPF)
  56. Compression mode                         : Lossy
  57. Stream size                              : 8.81 MiB (8%)
  58. Title                                    : [www.MoviezAddiction.space] - Hindi
  59. Language                                 : Hindi
  60. Default                                  : Yes
  61. Forced                                   : No
  62.  
  63. Text
  64. ID                                       : 3
  65. Format                                   : UTF-8
  66. Codec ID                                 : S_TEXT/UTF8
  67. Codec ID/Info                            : UTF-8 Plain Text
  68. Duration                                 : 38 min 25 s
  69. Bit rate                                 : 51 b/s
  70. Count of elements                        : 560
  71. Stream size                              : 14.4 KiB (0%)
  72. Title                                    : [www.MoviezAddiction.space] - English [SRT]
  73. Language                                 : English
  74. Default                                  : Yes
  75. Forced                                   : Yes