The text below is selected, press Ctrl+C to copy to your clipboard. (⌘+C on Mac) No line numbers will be copied.
Oldboy (2013) 720p BluRay x264...

5th November 2022 03:00:12 PM | Views: 20
  1. Format                                   : Matroska
  2. Format version                           : Version 4
  3. File size                                : 977 MiB
  4. Duration                                 : 1 h 43 min
  5. Overall bit rate                         : 1 317 kb/s
  6. Movie name                               : Oldboy (2013) 720p BluRay x264 English BD5.1 ESub 977MB [MoviezAddiction.life]
  7. Encoded date                             : UTC 2022-11-03 22:59:37
  8. Writing application                      : mkvmerge v71.1.0 ('Fortitude') 64-bit
  9. Writing library                          : libebml v1.4.4 + libmatroska v1.7.1
  10.  
  11. Video
  12. ID                                       : 1
  13. Format                                   : AVC
  14. Format/Info                              : Advanced Video Codec
  15. Format profile                           : [email protected]
  16. Format settings                          : CABAC / 4 Ref Frames
  17. Format settings, CABAC                   : Yes
  18. Format settings, Reference frames        : 4 frames
  19. Codec ID                                 : V_MPEG4/ISO/AVC
  20. Duration                                 : 1 h 43 min
  21. Bit rate                                 : 1 099 kb/s
  22. Width                                    : 1 280 pixels
  23. Height                                   : 534 pixels
  24. Display aspect ratio                     : 2.40:1
  25. Original display aspect ratio            : 2.40:1
  26. Frame rate mode                          : Variable
  27. Frame rate                               : 23.976 (24000/1001) FPS
  28. Color space                              : YUV
  29. Chroma subsampling                       : 4:2:0
  30. Bit depth                                : 8 bits
  31. Scan type                                : Progressive
  32. Bits/(Pixel*Frame)                       : 0.067
  33. Stream size                              : 815 MiB (83%)
  34. Default                                  : Yes
  35. Forced                                   : No
  36.  
  37. Audio
  38. ID                                       : 2
  39. Format                                   : AAC LC SBR
  40. Format/Info                              : Advanced Audio Codec Low Complexity with Spectral Band Replication
  41. Commercial name                          : HE-AAC
  42. Format settings                          : Explicit
  43. Codec ID                                 : A_AAC-2
  44. Duration                                 : 1 h 43 min
  45. Bit rate                                 : 192 kb/s
  46. Channel(s)                               : 6 channels
  47. Channel layout                           : C L R Ls Rs LFE
  48. Sampling rate                            : 48.0 kHz
  49. Frame rate                               : 23.438 FPS (2048 SPF)
  50. Compression mode                         : Lossy
  51. Stream size                              : 142 MiB (14%)
  52. Title                                    : English
  53. Language                                 : English
  54. Default                                  : Yes
  55. Forced                                   : No
  56.  
  57. Text
  58. ID                                       : 3
  59. Format                                   : PGS
  60. Codec ID                                 : S_HDMV/PGS
  61. Codec ID/Info                            : Picture based subtitle format used on BDs/HD-DVDs
  62. Duration                                 : 1 h 37 min
  63. Bit rate                                 : 26.7 kb/s
  64. Frame rate                               : 0.359 FPS
  65. Count of elements                        : 2098
  66. Stream size                              : 18.6 MiB (2%)
  67. Title                                    : English [PGS]
  68. Language                                 : English
  69. Default                                  : Yes
  70. Forced                                   : No
  71.  
  72. Menu
  73. 00:00:00.000                             : en:Chapter 1
  74. 00:04:45.118                             : en:Chapter 2
  75. 00:10:13.988                             : en:Chapter 3
  76. 00:16:15.600                             : en:Chapter 4
  77. 00:22:18.712                             : en:Chapter 5
  78. 00:30:30.162                             : en:Chapter 6
  79. 00:34:31.111                             : en:Chapter 7
  80. 00:43:42.370                             : en:Chapter 8
  81. 00:52:15.424                             : en:Chapter 9
  82. 00:56:28.677                             : en:Chapter 10
  83. 01:04:09.512                             : en:Chapter 11
  84. 01:10:00.488                             : en:Chapter 12
  85. 01:17:15.047                             : en:Chapter 13
  86. 01:22:37.411                             : en:Chapter 14
  87. 01:29:46.881                             : en:Chapter 15
  88. 01:37:15.580                             : en:Chapter 16