The text below is selected, press Ctrl+C to copy to your clipboard. (⌘+C on Mac) No line numbers will be copied.
Eternals (2021) IMAX 1080p 10bit

13th January 2022 02:38:32 AM | Views: 68
  1. Format                                   : Matroska
  2. Format version                           : Version 4
  3. File size                                : 3.05 GiB
  4. Duration                                 : 2 h 35 min
  5. Overall bit rate                         : 2 797 kb/s
  6. Movie name                               : Eternals (2021) IMAX 1080p WEB-DL x265 10bit HEVC Dual Audio [Hindi DDP5.1 + English DDP5.1 Atmos] MSubs 3.04GB [www.MoviezAddiction.art]
  7. Encoded date                             : UTC 2022-01-12 14:54:09
  8. Writing application                      : mkvmerge v47.0.0 ('Black Flag') 64-bit
  9. Writing library                          : libebml v1.3.10 + libmatroska v1.5.2
  10.  
  11. Video
  12. ID                                       : 1
  13. Format                                   : HEVC
  14. Format/Info                              : High Efficiency Video Coding
  15. Format profile                           : Main [email protected]@Main
  16. Codec ID                                 : V_MPEGH/ISO/HEVC
  17. Duration                                 : 2 h 35 min
  18. Bit rate                                 : 1 835 kb/s
  19. Width                                    : 1 920 pixels
  20. Height                                   : 1 016 pixels
  21. Display aspect ratio                     : 1.890
  22. Frame rate mode                          : Constant
  23. Frame rate                               : 23.976 (24000/1001) FPS
  24. Color space                              : YUV
  25. Chroma subsampling                       : 4:2:0
  26. Bit depth                                : 10 bits
  27. Bits/(Pixel*Frame)                       : 0.039
  28. Stream size                              : 2.00 GiB (66%)
  29. Title                                    : [www.MoviezAddiction.art]
  30. Default                                  : Yes
  31. Forced                                   : No
  32. Color range                              : Limited
  33. Color primaries                          : BT.709
  34. Transfer characteristics                 : BT.709
  35. Matrix coefficients                      : BT.709
  36.  
  37. Audio #1
  38. ID                                       : 2
  39. Format                                   : E-AC-3
  40. Format/Info                              : Enhanced AC-3
  41. Commercial name                          : Dolby Digital Plus
  42. Codec ID                                 : A_EAC3
  43. Duration                                 : 2 h 35 min
  44. Bit rate mode                            : Constant
  45. Bit rate                                 : 192 kb/s
  46. Channel(s)                               : 6 channels
  47. Channel layout                           : L R C LFE Ls Rs
  48. Sampling rate                            : 48.0 kHz
  49. Frame rate                               : 31.250 FPS (1536 SPF)
  50. Compression mode                         : Lossy
  51. Stream size                              : 214 MiB (7%)
  52. Title                                    : [www.MoviezAddiction.art] - Hindi
  53. Language                                 : Hindi
  54. Service kind                             : Complete Main
  55. Default                                  : Yes
  56. Forced                                   : No
  57.  
  58. Audio #2
  59. ID                                       : 3
  60. Format                                   : E-AC-3 JOC
  61. Format/Info                              : Enhanced AC-3 with Joint Object Coding
  62. Commercial name                          : Dolby Digital Plus with Dolby Atmos
  63. Codec ID                                 : A_EAC3
  64. Duration                                 : 2 h 35 min
  65. Bit rate mode                            : Constant
  66. Bit rate                                 : 768 kb/s
  67. Channel(s)                               : 6 channels
  68. Channel layout                           : L R C LFE Ls Rs
  69. Sampling rate                            : 48.0 kHz
  70. Frame rate                               : 31.250 FPS (1536 SPF)
  71. Compression mode                         : Lossy
  72. Stream size                              : 856 MiB (27%)
  73. Title                                    : [www.MoviezAddiction.art] - English
  74. Language                                 : English
  75. Service kind                             : Complete Main
  76. Default                                  : No
  77. Forced                                   : No
  78. Complexity index                         : 16
  79. Number of dynamic objects                : 15
  80. Bed channel count                        : 1 channel
  81. Bed channel configuration                : LFE
  82.  
  83. Text #1
  84. ID                                       : 4
  85. Format                                   : UTF-8
  86. Codec ID                                 : S_TEXT/UTF8
  87. Codec ID/Info                            : UTF-8 Plain Text
  88. Duration                                 : 2 h 33 min
  89. Bit rate                                 : 39 b/s
  90. Count of elements                        : 1708
  91. Stream size                              : 44.4 KiB (0%)
  92. Title                                    : [www.MoviezAddiction.art] - English [SRT]
  93. Language                                 : English
  94. Default                                  : Yes
  95. Forced                                   : No
  96.  
  97. Text #2
  98. ID                                       : 5
  99. Format                                   : UTF-8
  100. Codec ID                                 : S_TEXT/UTF8
  101. Codec ID/Info                            : UTF-8 Plain Text
  102. Duration                                 : 2 h 33 min
  103. Bit rate                                 : 49 b/s
  104. Count of elements                        : 2165
  105. Stream size                              : 56.0 KiB (0%)
  106. Title                                    : [www.MoviezAddiction.art] - English [SDH] [SRT]
  107. Language                                 : English
  108. Default                                  : No
  109. Forced                                   : No