The text below is selected, press Ctrl+C to copy to your clipboard. (⌘+C on Mac) No line numbers will be copied.
Resident Evil - Welcome to...

20th January 2022 08:37:58 AM | Views: 76
  1. Format                                   : Matroska
  2. Format version                           : Version 4
  3. File size                                : 5.84 GiB
  4. Duration                                 : 1 h 47 min
  5. Overall bit rate                         : 7 760 kb/s
  6. Movie name                               : Resident Evil - Welcome to Raccoon City (2021) 1080p WEB-DL x264 Dual Audio [Hindi DDP5.1 + English DDP5.1] MSubs 5.83GB [www.MoviezAddiction.art]
  7. Encoded date                             : UTC 2022-01-20 04:53:10
  8. Writing application                      : mkvmerge v47.0.0 ('Black Flag') 64-bit
  9. Writing library                          : libebml v1.3.10 + libmatroska v1.5.2
  10.  
  11. Video
  12. ID                                       : 1
  13. Format                                   : AVC
  14. Format/Info                              : Advanced Video Codec
  15. Format profile                           : [email protected]
  16. Format settings                          : CABAC / 4 Ref Frames
  17. Format settings, CABAC                   : Yes
  18. Format settings, Reference frames        : 4 frames
  19. Codec ID                                 : V_MPEG4/ISO/AVC
  20. Duration                                 : 1 h 47 min
  21. Bit rate mode                            : Constant
  22. Bit rate                                 : 6 673 kb/s
  23. Nominal bit rate                         : 10 000 kb/s
  24. Width                                    : 1 920 pixels
  25. Height                                   : 816 pixels
  26. Display aspect ratio                     : 2.35:1
  27. Frame rate mode                          : Constant
  28. Frame rate                               : 23.976 (24000/1001) FPS
  29. Color space                              : YUV
  30. Chroma subsampling                       : 4:2:0
  31. Bit depth                                : 8 bits
  32. Scan type                                : Progressive
  33. Bits/(Pixel*Frame)                       : 0.178
  34. Stream size                              : 5.02 GiB (86%)
  35. Title                                    : [www.MoviezAddiction.art]
  36. Default                                  : Yes
  37. Forced                                   : No
  38. Color range                              : Limited
  39. Color primaries                          : BT.709
  40. Transfer characteristics                 : BT.709
  41. Matrix coefficients                      : BT.709
  42.  
  43. Audio #1
  44. ID                                       : 2
  45. Format                                   : E-AC-3
  46. Format/Info                              : Enhanced AC-3
  47. Commercial name                          : Dolby Digital Plus
  48. Codec ID                                 : A_EAC3
  49. Duration                                 : 1 h 47 min
  50. Bit rate mode                            : Constant
  51. Bit rate                                 : 448 kb/s
  52. Channel(s)                               : 6 channels
  53. Channel layout                           : L R C LFE Ls Rs
  54. Sampling rate                            : 48.0 kHz
  55. Frame rate                               : 31.250 FPS (1536 SPF)
  56. Compression mode                         : Lossy
  57. Delay relative to video                  : 14 s 651 ms
  58. Stream size                              : 344 MiB (6%)
  59. Title                                    : [www.MoviezAddiction.art] - Hindi
  60. Language                                 : Hindi
  61. Service kind                             : Complete Main
  62. Default                                  : Yes
  63. Forced                                   : No
  64.  
  65. Audio #2
  66. ID                                       : 3
  67. Format                                   : E-AC-3
  68. Format/Info                              : Enhanced AC-3
  69. Commercial name                          : Dolby Digital Plus
  70. Codec ID                                 : A_EAC3
  71. Duration                                 : 1 h 47 min
  72. Bit rate mode                            : Constant
  73. Bit rate                                 : 640 kb/s
  74. Channel(s)                               : 6 channels
  75. Channel layout                           : L R C LFE Ls Rs
  76. Sampling rate                            : 48.0 kHz
  77. Frame rate                               : 31.250 FPS (1536 SPF)
  78. Compression mode                         : Lossy
  79. Stream size                              : 493 MiB (8%)
  80. Title                                    : [www.MoviezAddiction.art] - English
  81. Language                                 : English
  82. Service kind                             : Complete Main
  83. Default                                  : No
  84. Forced                                   : No
  85.  
  86. Text #1
  87. ID                                       : 4
  88. Format                                   : UTF-8
  89. Codec ID                                 : S_TEXT/UTF8
  90. Codec ID/Info                            : UTF-8 Plain Text
  91. Duration                                 : 1 h 46 min
  92. Bit rate                                 : 40 b/s
  93. Count of elements                        : 1437
  94. Stream size                              : 31.7 KiB (0%)
  95. Title                                    : [www.MoviezAddiction.art] - English [SRT]
  96. Language                                 : English
  97. Default                                  : Yes
  98. Forced                                   : No
  99.  
  100. Text #2
  101. ID                                       : 5
  102. Format                                   : UTF-8
  103. Codec ID                                 : S_TEXT/UTF8
  104. Codec ID/Info                            : UTF-8 Plain Text
  105. Duration                                 : 1 h 46 min
  106. Bit rate                                 : 44 b/s
  107. Count of elements                        : 1473
  108. Stream size                              : 34.5 KiB (0%)
  109. Title                                    : [www.MoviezAddiction.art] - English [SDH] [SRT]
  110. Language                                 : English
  111. Default                                  : No
  112. Forced                                   : No
  113.  
  114. Menu
  115. 00:00:00.000                             : en:Studio Logo
  116. 00:00:56.000                             : en:Opening Credits
  117. 00:01:08.000                             : en:Scene 3
  118. 00:05:12.000                             : en:Scene 4
  119. 00:06:29.000                             : en:Scene 5
  120. 00:06:32.000                             : en:Scene 6
  121. 00:15:09.000                             : en:Scene 7
  122. 00:20:09.000                             : en:Scene 8
  123. 00:26:16.000                             : en:Scene 9
  124. 00:38:00.000                             : en:Scene 10
  125. 00:41:24.000                             : en:Scene 11
  126. 00:51:51.000                             : en:Scene 12
  127. 00:59:22.000                             : en:Scene 13
  128. 01:07:39.000                             : en:Scene 14
  129. 01:13:20.000                             : en:Scene 15
  130. 01:16:22.000                             : en:Scene 16
  131. 01:16:48.000                             : en:Scene 17
  132. 01:19:17.000                             : en:Scene 18
  133. 01:19:34.000                             : en:Scene 19
  134. 01:20:46.000                             : en:Scene 20
  135. 01:24:11.000                             : en:Scene 21
  136. 01:28:44.000                             : en:Scene 22
  137. 01:34:00.000                             : en:Scene 23
  138. 01:35:17.000                             : en:Scene 24
  139. 01:39:29.000                             : en:Scene 25
  140. 01:41:06.000                             : en:End Credits