The text below is selected, press Ctrl+C to copy to your clipboard. (⌘+C on Mac) No line numbers will be copied.
Freaky Ali 2016

6th October 2020 08:49:29 AM | Views: 25
  1. General
  2. Complete name                            : Freaky Ali 2016 1080p WEB-Rip x264 DD+5.1 ~LustMovies.pro~ (5.0 G).mp4
  3. Format                                   : MPEG-4
  4. Format profile                           : Base Media
  5. Codec ID                                 : isom (isom/iso2/avc1/mp41/iso6/piff)
  6. File size                                : 4.96 GiB
  7. Duration                                 : 1 h 59 min
  8. Overall bit rate mode                    : Variable
  9. Overall bit rate                         : 5 925 kb/s
  10. Movie name                               : Freaky Ali
  11. Encoded date                             : UTC 2020-10-03 16:12:41
  12. Tagged date                              : UTC 2020-10-03 16:12:41
  13. Comment                                  : Freaky Ali is a film about Ali who extorts money for local goon till one day he ends up on a golf course for his collection. What follows is a journey of Ali realizing his potential to play the game of golf and eventually becoming the champion beating the current golf champion.
  14.  
  15. Video
  16. ID                                       : 1
  17. Format                                   : AVC
  18. Format/Info                              : Advanced Video Codec
  19. Format profile                           : [email protected]
  20. Format settings                          : CABAC / 4 Ref Frames
  21. Format settings, CABAC                   : Yes
  22. Format settings, Reference frames        : 4 frames
  23. Codec ID                                 : avc1
  24. Codec ID/Info                            : Advanced Video Coding
  25. Duration                                 : 1 h 59 min
  26. Bit rate                                 : 5 288 kb/s
  27. Maximum bit rate                         : 29.3 Mb/s
  28. Width                                    : 1 920 pixels
  29. Height                                   : 816 pixels
  30. Display aspect ratio                     : 2.35:1
  31. Original display aspect ratio            : 2.35:1
  32. Frame rate mode                          : Constant
  33. Frame rate                               : 24.000 FPS
  34. Color space                              : YUV
  35. Chroma subsampling                       : 4:2:0
  36. Bit depth                                : 8 bits
  37. Scan type                                : Progressive
  38. Bits/(Pixel*Frame)                       : 0.141
  39. Stream size                              : 4.43 GiB (89%)
  40. Encoded date                             : UTC 2020-10-03 16:12:41
  41. Tagged date                              : UTC 2020-10-03 16:12:41
  42. Color range                              : Limited
  43. Color primaries                          : BT.709
  44. Transfer characteristics                 : BT.709
  45. Matrix coefficients                      : BT.709
  46. Codec configuration box                  : avcC
  47.  
  48. Audio
  49. ID                                       : 2
  50. Format                                   : E-AC-3
  51. Format/Info                              : Enhanced AC-3
  52. Commercial name                          : Dolby Digital Plus
  53. Codec ID                                 : ec-3
  54. Duration                                 : 1 h 58 min
  55. Bit rate mode                            : Constant
  56. Bit rate                                 : 640 kb/s
  57. Channel(s)                               : 6 channels
  58. Channel layout                           : L R C LFE Ls Rs
  59. Sampling rate                            : 48.0 kHz
  60. Frame rate                               : 31.250 FPS (1536 SPF)
  61. Compression mode                         : Lossy
  62. Stream size                              : 542 MiB (11%)
  63. Language                                 : Hindi
  64. Service kind                             : Complete Main
  65. Encoded date                             : UTC 2020-10-03 16:12:41
  66. Tagged date                              : UTC 2020-10-03 16:12:41
  67.  
  68. Text #1
  69. ID                                       : 3
  70. Format                                   : Timed Text
  71. Muxing mode                              : sbtl
  72. Codec ID                                 : tx3g
  73. Duration                                 : 1 h 56 min
  74. Bit rate mode                            : Variable
  75. Bit rate                                 : 69 b/s
  76. Stream size                              : 59.1 KiB (0%)
  77. Title                                    : English [CC] / English [CC]
  78. Language                                 : English
  79. Forced                                   : No
  80. Encoded date                             : UTC 2020-10-03 16:12:41
  81. Tagged date                              : UTC 2020-10-03 16:12:41
  82. mdhd_Duration                            : 2672463
  83.  
  84. Text #2
  85. ID                                       : 4
  86. Format                                   : Timed Text
  87. Muxing mode                              : sbtl
  88. Codec ID                                 : tx3g
  89. Duration                                 : 1 h 56 min
  90. Bit rate mode                            : Variable
  91. Bit rate                                 : 64 b/s
  92. Stream size                              : 54.2 KiB (0%)
  93. Title                                    : Espa�ol (Espa�a) / Espa�ol (Espa�a)
  94. Language                                 : Spanish
  95. Forced                                   : No
  96. Encoded date                             : UTC 2020-10-03 16:12:41
  97. Tagged date                              : UTC 2020-10-03 16:12:41
  98. mdhd_Duration                            : 2683150
  99.  
  100. Text #3
  101. ID                                       : 5
  102. Format                                   : Timed Text
  103. Muxing mode                              : sbtl
  104. Codec ID                                 : tx3g
  105. Duration                                 : 1 h 56 min
  106. Bit rate mode                            : Variable
  107. Bit rate                                 : 63 b/s
  108. Stream size                              : 53.7 KiB (0%)
  109. Title                                    : Espa�ol (Latinoam�rica) / Espa�ol (Latinoam�rica)
  110. Language                                 : Spanish
  111. Forced                                   : No
  112. Encoded date                             : UTC 2020-10-03 16:12:41
  113. Tagged date                              : UTC 2020-10-03 16:12:41
  114. mdhd_Duration                            : 2683150
  115.  
  116. Text #4
  117. ID                                       : 6
  118. Format                                   : Timed Text
  119. Muxing mode                              : sbtl
  120. Codec ID                                 : tx3g
  121. Duration                                 : 1 h 56 min
  122. Bit rate mode                            : Variable
  123. Bit rate                                 : 59 b/s
  124. Stream size                              : 50.4 KiB (0%)
  125. Title                                    : Fran�ais / Fran�ais
  126. Language                                 : French
  127. Forced                                   : No
  128. Encoded date                             : UTC 2020-10-03 16:12:41
  129. Tagged date                              : UTC 2020-10-03 16:12:41
  130. mdhd_Duration                            : 2672658
  131.  
  132. Text #5
  133. ID                                       : 7
  134. Format                                   : Timed Text
  135. Muxing mode                              : sbtl
  136. Codec ID                                 : tx3g
  137. Duration                                 : 1 h 56 min
  138. Bit rate mode                            : Variable
  139. Bit rate                                 : 65 b/s
  140. Stream size                              : 55.3 KiB (0%)
  141. Title                                    : Indonesia / Indonesia
  142. Language                                 : Indonesian
  143. Forced                                   : No
  144. Encoded date                             : UTC 2020-10-03 16:12:41
  145. Tagged date                              : UTC 2020-10-03 16:12:41
  146. mdhd_Duration                            : 2672949
  147.  
  148. Text #6
  149. ID                                       : 8
  150. Format                                   : Timed Text
  151. Muxing mode                              : sbtl
  152. Codec ID                                 : tx3g
  153. Duration                                 : 1 h 56 min
  154. Bit rate mode                            : Variable
  155. Bit rate                                 : 64 b/s
  156. Stream size                              : 54.3 KiB (0%)
  157. Title                                    : Italiano / Italiano
  158. Language                                 : Italian
  159. Forced                                   : No
  160. Encoded date                             : UTC 2020-10-03 16:12:41
  161. Tagged date                              : UTC 2020-10-03 16:12:41
  162. mdhd_Duration                            : 2683150
  163.  
  164. Text #7
  165. ID                                       : 9
  166. Format                                   : Timed Text
  167. Muxing mode                              : sbtl
  168. Codec ID                                 : tx3g
  169. Duration                                 : 1 h 56 min
  170. Bit rate mode                            : Variable
  171. Bit rate                                 : 91 b/s
  172. Stream size                              : 77.1 KiB (0%)
  173. Title                                    : \u0420\u0443\u0441\u0441\u043a\u0438\u0439 / \u0420\u0443\u0441\u0441\u043a\u0438\u0439
  174. Language                                 : Russian
  175. Forced                                   : No
  176. Encoded date                             : UTC 2020-10-03 16:12:41
  177. Tagged date                              : UTC 2020-10-03 16:12:41
  178. mdhd_Duration                            : 2672949
  179.  
  180. Text #8
  181. ID                                       : 10
  182. Format                                   : Timed Text
  183. Muxing mode                              : sbtl
  184. Codec ID                                 : tx3g
  185. Duration                                 : 1 h 56 min
  186. Bit rate mode                            : Variable
  187. Bit rate                                 : 103 b/s
  188. Stream size                              : 87.5 KiB (0%)
  189. Title                                    : \u0627\u0644\u0639\u0631\u0628\u064a\u0629 / \u0627\u0644\u0639\u0631\u0628\u064a\u0629
  190. Language                                 : Arabic
  191. Forced                                   : No
  192. Encoded date                             : UTC 2020-10-03 16:12:41
  193. Tagged date                              : UTC 2020-10-03 16:12:41
  194. mdhd_Duration                            : 2672432
  195.  
  196. Text #9
  197. ID                                       : 11
  198. Format                                   : Timed Text
  199. Muxing mode                              : sbtl
  200. Codec ID                                 : tx3g
  201. Duration                                 : 1 h 56 min
  202. Bit rate mode                            : Variable
  203. Bit rate                                 : 165 b/s
  204. Stream size                              : 140 KiB (0%)
  205. Title                                    : \u0ba4\u0bae\u0bbf\u0bb4\u0bcd [CC] / \u0ba4\u0bae\u0bbf\u0bb4\u0bcd [CC]
  206. Language                                 : Tamil
  207. Forced                                   : No
  208. Encoded date                             : UTC 2020-10-03 16:12:41
  209. Tagged date                              : UTC 2020-10-03 16:12:41
  210. mdhd_Duration                            : 2672699
  211.  
  212. Text #10
  213. ID                                       : 12
  214. Format                                   : Timed Text
  215. Muxing mode                              : sbtl
  216. Codec ID                                 : tx3g
  217. Duration                                 : 1 h 56 min
  218. Bit rate mode                            : Variable
  219. Bit rate                                 : 169 b/s
  220. Stream size                              : 144 KiB (0%)
  221. Title                                    : \u0c24\u0c46\u0c32\u0c41\u0c17\u0c41 [CC] / \u0c24\u0c46\u0c32\u0c41\u0c17\u0c41 [CC]
  222. Language                                 : Telugu
  223. Forced                                   : No
  224. Encoded date                             : UTC 2020-10-03 16:12:41
  225. Tagged date                              : UTC 2020-10-03 16:12:41
  226. mdhd_Duration                            : 2672449
  227.  
  228. Text #11
  229. ID                                       : 13
  230. Format                                   : Timed Text
  231. Muxing mode                              : sbtl
  232. Codec ID                                 : tx3g
  233. Duration                                 : 1 h 56 min
  234. Bit rate mode                            : Variable
  235. Bit rate                                 : 150 b/s
  236. Stream size                              : 128 KiB (0%)
  237. Title                                    : \u0e44\u0e17\u0e22 / \u0e44\u0e17\u0e22
  238. Language                                 : Thai
  239. Forced                                   : No
  240. Encoded date                             : UTC 2020-10-03 16:12:41
  241. Tagged date                              : UTC 2020-10-03 16:12:41
  242. mdhd_Duration                            : 2684949
  243.  
  244. Text #12
  245. ID                                       : 14
  246. Format                                   : Timed Text
  247. Muxing mode                              : sbtl
  248. Codec ID                                 : tx3g
  249. Duration                                 : 1 h 56 min
  250. Bit rate mode                            : Variable
  251. Bit rate                                 : 64 b/s
  252. Stream size                              : 54.3 KiB (0%)
  253. Title                                    : \u4e2d\u6587\uff08\u7b80\u4f53\uff09 / \u4e2d\u6587\uff08\u7b80\u4f53\uff09
  254. Language                                 : Chinese
  255. Forced                                   : No
  256. Encoded date                             : UTC 2020-10-03 16:12:41
  257. Tagged date                              : UTC 2020-10-03 16:12:41
  258. mdhd_Duration                            : 2672574
  259.  
  260. Text #13
  261. ID                                       : 15
  262. Format                                   : Timed Text
  263. Muxing mode                              : sbtl
  264. Codec ID                                 : tx3g
  265. Duration                                 : 1 h 56 min
  266. Bit rate mode                            : Variable
  267. Bit rate                                 : 65 b/s
  268. Stream size                              : 55.1 KiB (0%)
  269. Title                                    : \u4e2d\u6587\uff08\u7e41\u9ad4\uff09 / \u4e2d\u6587\uff08\u7e41\u9ad4\uff09
  270. Language                                 : Chinese
  271. Forced                                   : No
  272. Encoded date                             : UTC 2020-10-03 16:12:41
  273. Tagged date                              : UTC 2020-10-03 16:12:41
  274. mdhd_Duration                            : 2685491
  275.  
  276. General
  277. Unique ID                                : 287945142425077262273932150230706628656 (0xD8A0379B51AC34E12CB73B29A0F52830)
  278. Complete name                            : Freaky Ali 2016 720p WEB-Rip x264 AAC 5.1 ~LustMovies.pro~ (1 017.7 M).mkv
  279. Format                                   : Matroska
  280. Format version                           : Version 4
  281. File size                                : 1 018 MiB
  282. Duration                                 : 1 h 59 min
  283. Overall bit rate                         : 1 187 kb/s
  284. Movie name                               : LustMovies.pro | Freaky Ali 2016 720p WEB-Rip x264 AAC 5.1 ~LustMovies.pro~ (1 017.7 M)
  285. Encoded date                             : UTC 2020-10-05 19:46:19
  286. Writing application                      : HandBrake 1.2.1 2019021900
  287. Writing library                          : Lavf58.20.100
  288. ErrorDetectionType                       : Per level 1
  289.  
  290. Video
  291. ID                                       : 1
  292. Format                                   : AVC
  293. Format/Info                              : Advanced Video Codec
  294. Format profile                           : [email protected]
  295. Format settings                          : CABAC / 5 Ref Frames
  296. Format settings, CABAC                   : Yes
  297. Format settings, Reference frames        : 5 frames
  298. Codec ID                                 : V_MPEG4/ISO/AVC
  299. Duration                                 : 1 h 59 min
  300. Nominal bit rate                         : 1 000 kb/s
  301. Width                                    : 1 280 pixels
  302. Height                                   : 544 pixels
  303. Display aspect ratio                     : 2.35:1
  304. Frame rate mode                          : Constant
  305. Frame rate                               : 24.000 FPS
  306. Color space                              : YUV
  307. Chroma subsampling                       : 4:2:0
  308. Bit depth                                : 8 bits
  309. Scan type                                : Progressive
  310. Bits/(Pixel*Frame)                       : 0.060
  311. Title                                    : LustMovies.pro
  312. Writing library                          : x264 core 152 r2854 e9a5903
  313. Encoding settings                        : cabac=1 / ref=5 / deblock=1:0:0 / analyse=0x3:0x113 / me=hex / subme=8 / psy=1 / psy_rd=1.00:0.00 / mixed_ref=1 / me_range=16 / chroma_me=1 / trellis=2 / 8x8dct=1 / cqm=0 / deadzone=21,11 / fast_pskip=1 / chroma_qp_offset=-2 / threads=17 / lookahead_threads=2 / sliced_threads=0 / nr=0 / decimate=1 / interlaced=0 / bluray_compat=0 / constrained_intra=0 / bframes=3 / b_pyramid=2 / b_adapt=1 / b_bias=0 / direct=3 / weightb=1 / open_gop=0 / weightp=2 / keyint=240 / keyint_min=24 / scenecut=40 / intra_refresh=0 / rc_lookahead=50 / rc=abr / mbtree=1 / bitrate=1000 / ratetol=1.0 / qcomp=0.60 / qpmin=0 / qpmax=69 / qpstep=4 / ip_ratio=1.40 / aq=1:1.00
  314. Default                                  : Yes
  315. Forced                                   : No
  316. Color range                              : Limited
  317. Color primaries                          : BT.709
  318. Transfer characteristics                 : BT.709
  319. Matrix coefficients                      : BT.709
  320. Duration_Source                          : General_Duration
  321.  
  322. Audio
  323. ID                                       : 2
  324. Format                                   : AAC LC
  325. Format/Info                              : Advanced Audio Codec Low Complexity
  326. Codec ID                                 : A_AAC-2
  327. Duration                                 : 1 h 59 min
  328. Channel(s)                               : 6 channels
  329. Channel layout                           : C L R Ls Rs LFE
  330. Sampling rate                            : 48.0 kHz
  331. Frame rate                               : 46.875 FPS (1024 SPF)
  332. Compression mode                         : Lossy
  333. Delay relative to video                  : -104 ms
  334. Title                                    : LustMovies.pro
  335. Language                                 : Hindi
  336. Default                                  : Yes
  337. Forced                                   : No
  338. Duration_Source                          : General_Duration
  339.  
  340. Text
  341. ID                                       : 3
  342. Format                                   : ASS
  343. Codec ID                                 : S_TEXT/ASS
  344. Codec ID/Info                            : Advanced Sub Station Alpha
  345. Compression mode                         : Lossless
  346. Title                                    : LustMovies.pro
  347. Language                                 : English
  348. Default                                  : Yes
  349. Forced                                   : Yes
  350.  
  351. General
  352. Unique ID                                : 137023516938006670845509873055993685524 (0x6715C4F9BB868561E4F8D00ED0DFE614)
  353. Complete name                            : Freaky Ali 2016 480p WEB-Rip x264 AAC 2.0 ~LustMovies.pro~ (397.5 M).mkv
  354. Format                                   : Matroska
  355. Format version                           : Version 4
  356. File size                                : 398 MiB
  357. Duration                                 : 1 h 59 min
  358. Overall bit rate                         : 464 kb/s
  359. Movie name                               : LustMovies.pro | Freaky Ali 2016 480p WEB-Rip x264 AAC 2.0 ~LustMovies.pro~ (397.5 M)
  360. Encoded date                             : UTC 2020-10-05 20:27:13
  361. Writing application                      : HandBrake 1.2.1 2019021900
  362. Writing library                          : Lavf58.20.100
  363. ErrorDetectionType                       : Per level 1
  364.  
  365. Video
  366. ID                                       : 1
  367. Format                                   : AVC
  368. Format/Info                              : Advanced Video Codec
  369. Format profile                           : [email protected]
  370. Format settings                          : CABAC / 5 Ref Frames
  371. Format settings, CABAC                   : Yes
  372. Format settings, Reference frames        : 5 frames
  373. Codec ID                                 : V_MPEG4/ISO/AVC
  374. Duration                                 : 1 h 59 min
  375. Nominal bit rate                         : 400 kb/s
  376. Width                                    : 720 pixels
  377. Height                                   : 306 pixels
  378. Display aspect ratio                     : 2.35:1
  379. Frame rate mode                          : Constant
  380. Frame rate                               : 24.000 FPS
  381. Color space                              : YUV
  382. Chroma subsampling                       : 4:2:0
  383. Bit depth                                : 8 bits
  384. Scan type                                : Progressive
  385. Bits/(Pixel*Frame)                       : 0.076
  386. Title                                    : LustMovies.pro
  387. Writing library                          : x264 core 152 r2854 e9a5903
  388. Encoding settings                        : cabac=1 / ref=5 / deblock=1:0:0 / analyse=0x3:0x113 / me=hex / subme=8 / psy=1 / psy_rd=1.00:0.00 / mixed_ref=1 / me_range=16 / chroma_me=1 / trellis=2 / 8x8dct=1 / cqm=0 / deadzone=21,11 / fast_pskip=1 / chroma_qp_offset=-2 / threads=10 / lookahead_threads=1 / sliced_threads=0 / nr=0 / decimate=1 / interlaced=0 / bluray_compat=0 / constrained_intra=0 / bframes=3 / b_pyramid=2 / b_adapt=1 / b_bias=0 / direct=3 / weightb=1 / open_gop=0 / weightp=2 / keyint=240 / keyint_min=24 / scenecut=40 / intra_refresh=0 / rc_lookahead=50 / rc=abr / mbtree=1 / bitrate=400 / ratetol=1.0 / qcomp=0.60 / qpmin=0 / qpmax=69 / qpstep=4 / ip_ratio=1.40 / aq=1:1.00
  389. Default                                  : Yes
  390. Forced                                   : No
  391. Color range                              : Limited
  392. Color primaries                          : BT.709
  393. Transfer characteristics                 : BT.709
  394. Matrix coefficients                      : BT.709
  395. Duration_Source                          : General_Duration
  396.  
  397. Audio
  398. ID                                       : 2
  399. Format                                   : AAC LC
  400. Format/Info                              : Advanced Audio Codec Low Complexity
  401. Codec ID                                 : A_AAC-2
  402. Duration                                 : 1 h 59 min
  403. Channel(s)                               : 2 channels
  404. Channel layout                           : L R
  405. Sampling rate                            : 48.0 kHz
  406. Frame rate                               : 46.875 FPS (1024 SPF)
  407. Compression mode                         : Lossy
  408. Delay relative to video                  : -104 ms
  409. Title                                    : LustMovies.pro
  410. Language                                 : Hindi
  411. Default                                  : Yes
  412. Forced                                   : No
  413. Duration_Source                          : General_Duration
  414.  
  415. Text
  416. ID                                       : 3
  417. Format                                   : ASS
  418. Codec ID                                 : S_TEXT/ASS
  419. Codec ID/Info                            : Advanced Sub Station Alpha
  420. Compression mode                         : Lossless
  421. Title                                    : LustMovies.pro
  422. Language                                 : English
  423. Default                                  : Yes
  424. Forced                                   : Yes