The text below is selected, press Ctrl+C to copy to your clipboard. (⌘+C on Mac) No line numbers will be copied.
Top Gun Maverick (2022) IMAX...

13th January 2023 03:34:29 AM | Views: 17
  1. Format                                   : Matroska
  2. Format version                           : Version 4
  3. File size                                : 4.17 GiB
  4. Duration                                 : 2 h 12 min
  5. Overall bit rate                         : 4 502 kb/s
  6. Movie name                               : Top Gun Maverick (2022) IMAX 1080p BluRay x265 10bit HEVC Dual Audio [Hindi DDP5.1 + English DTS 5.1] ESub 4.16GB [MoviezAddiction]
  7. Encoded date                             : UTC 2023-01-12 16:03:12
  8. Writing application                      : mkvmerge v72.0.0 ('Minuano (Six-eight)') 64-bit
  9. Writing library                          : libebml v1.4.4 + libmatroska v1.7.1
  10.  
  11. Video
  12. ID                                       : 1
  13. Format                                   : HEVC
  14. Format/Info                              : High Efficiency Video Coding
  15. Format profile                           : Main [email protected]@Main
  16. Codec ID                                 : V_MPEGH/ISO/HEVC
  17. Duration                                 : 2 h 10 min
  18. Bit rate                                 : 2 388 kb/s
  19. Width                                    : 1 920 pixels
  20. Height                                   : 1 016 pixels
  21. Display aspect ratio                     : 1.890
  22. Frame rate mode                          : Constant
  23. Frame rate                               : 23.976 (24000/1001) FPS
  24. Color space                              : YUV
  25. Chroma subsampling                       : 4:2:0
  26. Bit depth                                : 10 bits
  27. Bits/(Pixel*Frame)                       : 0.051
  28. Stream size                              : 2.17 GiB (52%)
  29. Default                                  : Yes
  30. Forced                                   : No
  31.  
  32. Audio #1
  33. ID                                       : 2
  34. Format                                   : E-AC-3
  35. Format/Info                              : Enhanced AC-3
  36. Commercial name                          : Dolby Digital Plus
  37. Codec ID                                 : A_EAC3
  38. Duration                                 : 2 h 12 min
  39. Bit rate mode                            : Constant
  40. Bit rate                                 : 640 kb/s
  41. Channel(s)                               : 6 channels
  42. Channel layout                           : L R C LFE Ls Rs
  43. Sampling rate                            : 48.0 kHz
  44. Frame rate                               : 31.250 FPS (1536 SPF)
  45. Compression mode                         : Lossy
  46. Stream size                              : 607 MiB (14%)
  47. Title                                    : Hindi
  48. Language                                 : Hindi
  49. Service kind                             : Complete Main
  50. Default                                  : Yes
  51. Forced                                   : No
  52.  
  53. Audio #2
  54. ID                                       : 3
  55. Format                                   : DTS
  56. Format/Info                              : Digital Theater Systems
  57. Codec ID                                 : A_DTS
  58. Duration                                 : 2 h 10 min
  59. Bit rate mode                            : Constant
  60. Bit rate                                 : 1 509 kb/s
  61. Channel(s)                               : 6 channels
  62. Channel layout                           : C L R Ls Rs LFE
  63. Sampling rate                            : 48.0 kHz
  64. Frame rate                               : 93.750 FPS (512 SPF)
  65. Bit depth                                : 24 bits
  66. Compression mode                         : Lossy
  67. Stream size                              : 1.37 GiB (33%)
  68. Title                                    : English
  69. Language                                 : English
  70. Default                                  : No
  71. Forced                                   : No
  72.  
  73. Text
  74. ID                                       : 4
  75. ID in the original source medium         : 4608 (0x1200)
  76. Format                                   : PGS
  77. Codec ID                                 : S_HDMV/PGS
  78. Codec ID/Info                            : Picture based subtitle format used on BDs/HD-DVDs
  79. Duration                                 : 1 h 57 min
  80. Bit rate                                 : 36.9 kb/s
  81. Frame rate                               : 0.413 FPS
  82. Count of elements                        : 2906
  83. Stream size                              : 31.0 MiB (1%)
  84. Title                                    : English [PGS]
  85. Language                                 : English
  86. Default                                  : Yes
  87. Forced                                   : No
  88. Original source medium                   : Blu-ray
  89.  
  90. Menu
  91. 00:00:00.000                             : en:Chapter 01
  92. 00:03:05.226                             : en:Chapter 02
  93. 00:13:40.110                             : en:Chapter 03
  94. 00:21:22.948                             : en:Chapter 04
  95. 00:32:39.415                             : en:Chapter 05
  96. 00:44:47.518                             : en:Chapter 06
  97. 00:53:54.940                             : en:Chapter 07
  98. 01:00:09.606                             : en:Chapter 08
  99. 01:07:39.305                             : en:Chapter 09
  100. 01:15:46.166                             : en:Chapter 10
  101. 01:23:37.721                             : en:Chapter 11
  102. 01:31:49.128                             : en:Chapter 12
  103. 01:41:32.628                             : en:Chapter 13
  104. 01:48:48.063                             : en:Chapter 14
  105. 01:57:22.410                             : en:Chapter 15
  106. 02:03:13.135                             : en:Chapter 16