The text below is selected, press Ctrl+C to copy to your clipboard. (⌘+C on Mac) No line numbers will be copied.
Neighbors 2 Sorority Rising (2016)...

12th September 2020 03:24:52 PM | Views: 21
  1. Format                                   : Matroska
  2. Format version                           : Version 4
  3. File size                                : 387 MiB
  4. Duration                                 : 1 h 32 min
  5. Overall bit rate                         : 585 kb/s
  6. Movie name                               : Neighbors 2 Sorority Rising (2016) 480p Bluray x264 Dual Audio [ Hindi DD2.0 + English DD2.0 ] ESubs [www.MoviezAddiction.space].
  7. Encoded date                             : UTC 2020-09-12 12:53:39
  8. Writing application                      : mkvmerge v48.0.0 ('Fortress Around Your Heart') 64-bit
  9. Writing library                          : libebml v1.4.0 + libmatroska v1.6.0
  10.  
  11. Video
  12. ID                                       : 1
  13. Format                                   : AVC
  14. Format/Info                              : Advanced Video Codec
  15. Format profile                           : [email protected]
  16. Format settings                          : CABAC / 5 Ref Frames
  17. Format settings, CABAC                   : Yes
  18. Format settings, Reference frames        : 5 frames
  19. Codec ID                                 : V_MPEG4/ISO/AVC
  20. Duration                                 : 1 h 32 min
  21. Bit rate                                 : 475 kb/s
  22. Width                                    : 856 pixels
  23. Height                                   : 360 pixels
  24. Display aspect ratio                     : 2.40:1
  25. Frame rate mode                          : Constant
  26. Frame rate                               : 23.976 (24000/1001) FPS
  27. Color space                              : YUV
  28. Chroma subsampling                       : 4:2:0
  29. Bit depth                                : 8 bits
  30. Scan type                                : Progressive
  31. Bits/(Pixel*Frame)                       : 0.064
  32. Stream size                              : 314 MiB (81%)
  33. Title                                    : [www.MoviezAddiction.space]
  34. Writing library                          : x264 core 148 r2694 3b70645
  35. Encoding settings                        : cabac=1 / ref=5 / deblock=1:-1:-1 / analyse=0x3:0x113 / me=umh / subme=9 / psy=1 / psy_rd=1.00:0.15 / mixed_ref=1 / me_range=24 / chroma_me=1 / trellis=1 / 8x8dct=1 / cqm=0 / deadzone=21,11 / fast_pskip=1 / chroma_qp_offset=-3 / threads=11 / lookahead_threads=1 / sliced_threads=0 / nr=0 / decimate=1 / interlaced=0 / bluray_compat=0 / constrained_intra=0 / bframes=3 / b_pyramid=2 / b_adapt=2 / b_bias=0 / direct=3 / weightb=1 / open_gop=0 / weightp=2 / keyint=250 / keyint_min=23 / scenecut=40 / intra_refresh=0 / rc_lookahead=50 / rc=2pass / mbtree=1 / bitrate=475 / ratetol=1.0 / qcomp=0.60 / qpmin=0 / qpmax=69 / qpstep=4 / cplxblur=20.0 / qblur=0.5 / vbv_maxrate=13500 / vbv_bufsize=9750 / nal_hrd=none / filler=0 / ip_ratio=1.40 / aq=3:0.80
  36. Language                                 : English
  37. Default                                  : Yes
  38. Forced                                   : No
  39.  
  40. Audio #1
  41. ID                                       : 2
  42. Format                                   : AAC LC SBR
  43. Format/Info                              : Advanced Audio Codec Low Complexity with Spectral Band Replication
  44. Commercial name                          : HE-AAC
  45. Format settings                          : Explicit
  46. Codec ID                                 : A_AAC-2
  47. Duration                                 : 1 h 32 min
  48. Bit rate                                 : 53.8 kb/s
  49. Channel(s)                               : 2 channels
  50. Channel layout                           : L R
  51. Sampling rate                            : 48.0 kHz
  52. Frame rate                               : 23.438 FPS (2048 SPF)
  53. Compression mode                         : Lossy
  54. Delay relative to video                  : 31 ms
  55. Stream size                              : 35.5 MiB (9%)
  56. Title                                    : [www.MoviezAddiction.space]
  57. Language                                 : English
  58. Default                                  : No
  59. Forced                                   : No
  60.  
  61. Audio #2
  62. ID                                       : 5
  63. Format                                   : AAC LC
  64. Format/Info                              : Advanced Audio Codec Low Complexity
  65. Codec ID                                 : A_AAC-2
  66. Duration                                 : 1 h 32 min
  67. Bit rate                                 : 53.4 kb/s
  68. Channel(s)                               : 2 channels
  69. Channel layout                           : L R
  70. Sampling rate                            : 48.0 kHz
  71. Frame rate                               : 46.875 FPS (1024 SPF)
  72. Compression mode                         : Lossy
  73. Stream size                              : 35.3 MiB (9%)
  74. Title                                    : [www.MoviezAddiction.space]
  75. Language                                 : Hindi
  76. Default                                  : Yes
  77. Forced                                   : Yes
  78.  
  79. Text #1
  80. ID                                       : 3
  81. Format                                   : UTF-8
  82. Codec ID                                 : S_TEXT/UTF8
  83. Codec ID/Info                            : UTF-8 Plain Text
  84. Duration                                 : 1 h 25 min
  85. Bit rate                                 : 101 b/s
  86. Count of elements                        : 2127
  87. Stream size                              : 63.3 KiB (0%)
  88. Title                                    : [www.MoviezAddiction.space]
  89. Language                                 : English
  90. Default                                  : No
  91. Forced                                   : No
  92.  
  93. Text #2
  94. ID                                       : 4
  95. Format                                   : UTF-8
  96. Codec ID                                 : S_TEXT/UTF8
  97. Codec ID/Info                            : UTF-8 Plain Text
  98. Duration                                 : 1 h 25 min
  99. Bit rate                                 : 109 b/s
  100. Count of elements                        : 2267
  101. Stream size                              : 68.4 KiB (0%)
  102. Title                                    : [www.MoviezAddiction.space]
  103. Language                                 : English
  104. Default                                  : Yes
  105. Forced                                   : Yes
  106.  
  107. Menu
  108. 00:00:00.000                             : en:00:00:00.000
  109. 00:06:30.890                             : en:00:06:30.890
  110. 00:09:50.381                             : en:00:09:50.381
  111. 00:13:05.535                             : en:00:13:05.535
  112. 00:17:37.890                             : en:00:17:37.890
  113. 00:22:13.082                             : en:00:22:13.082
  114. 00:27:34.278                             : en:00:27:34.278
  115. 00:31:54.454                             : en:00:31:54.454
  116. 00:38:36.022                             : en:00:38:36.022
  117. 00:44:43.222                             : en:00:44:43.222
  118. 00:50:42.039                             : en:00:50:42.039
  119. 00:54:32.811                             : en:00:54:32.811
  120. 01:00:54.609                             : en:01:00:54.609
  121. 01:04:14.684                             : en:01:04:14.684
  122. 01:08:26.644                             : en:01:08:26.644
  123. 01:12:54.370                             : en:01:12:54.370
  124. 01:16:34.423                             : en:01:16:34.423
  125. 01:20:45.215                             : en:01:20:45.215
  126. 01:23:18.994                             : en:01:23:18.994
  127. 01:26:03.700                             : en:01:26:03.700