The text below is selected, press Ctrl+C to copy to your clipboard. (⌘+C on Mac) No line numbers will be copied.
MediaInfo

12th April 2019 08:39:03 AM | Views: 85
  1. Format                      : Matroska
  2. Format version              : Version 4 / Version 2
  3. File size                   : 754 MiB
  4. Duration                    : 1 h 30 min
  5. Overall bit rate            : 1 163 kb/s
  6. Encoded date                : UTC 2019-04-12 08:36:22
  7. Writing application         : mkvmerge v30.0.0 ('Interstellar') 64-bit
  8. Writing library             : libebml v1.3.6 + libmatroska v1.4.9
  9.  
  10. Video
  11. ID                          : 1
  12. Format                      : AVC
  13. Format/Info                 : Advanced Video Codec
  14. Format profile              : [email protected]
  15. Format settings             : CABAC / 5 Ref Frames
  16. Format settings, CABAC      : Yes
  17. Format settings, ReFrames   : 5 frames
  18. Codec ID                    : V_MPEG4/ISO/AVC
  19. Duration                    : 1 h 30 min
  20. Bit rate                    : 1 092 kb/s
  21. Width                       : 1 280 pixels
  22. Height                      : 536 pixels
  23. Display aspect ratio        : 2.40:1
  24. Frame rate mode             : Constant
  25. Frame rate                  : 23.976 (24000/1001) FPS
  26. Color space                 : YUV
  27. Chroma subsampling          : 4:2:0
  28. Bit depth                   : 8 bits
  29. Scan type                   : Progressive
  30. Bits/(Pixel*Frame)          : 0.066
  31. Stream size                 : 708 MiB (94%)
  32. Writing library             : x264 core 157 r2935 545de2f
  33. Encoding settings           : cabac=1 / ref=5 / deblock=1:-1:-1 / analyse=0x3:0x133 / me=umh / subme=9 / psy=1 / psy_rd=1.00:0.10 / mixed_ref=1 / me_range=24 / chroma_me=1 / trellis=2 / 8x8dct=1 / cqm=0 / deadzone=21,11 / fast_pskip=1 / chroma_qp_offset=-3 / threads=17 / lookahead_threads=1 / sliced_threads=0 / nr=0 / decimate=1 / interlaced=0 / bluray_compat=0 / constrained_intra=0 / bframes=3 / b_pyramid=2 / b_adapt=2 / b_bias=0 / direct=3 / weightb=1 / open_gop=0 / weightp=2 / keyint=250 / keyint_min=23 / scenecut=40 / intra_refresh=0 / rc_lookahead=60 / rc=2pass / mbtree=1 / bitrate=1092 / ratetol=1.0 / qcomp=0.60 / qpmin=0 / qpmax=69 / qpstep=4 / cplxblur=20.0 / qblur=0.5 / ip_ratio=1.40 / aq=1:1.00
  34. Default                     : Yes
  35. Forced                      : No
  36.  
  37. Audio
  38. ID                          : 2
  39. Format                      : AAC
  40. Format/Info                 : Advanced Audio Codec
  41. Format profile              : HE-AAC / LC
  42. Format settings             : Explicit
  43. Codec ID                    : A_AAC-2
  44. Duration                    : 1 h 30 min
  45. Bit rate                    : 64.0 kb/s
  46. Channel(s)                  : 2 channels
  47. Channel positions           : Front: L R
  48. Sampling rate               : 48.0 kHz / 24.0 kHz
  49. Frame rate                  : 23.438 FPS (1024 SPF)
  50. Compression mode            : Lossy
  51. Delay relative to video     : 43 ms
  52. Stream size                 : 41.5 MiB (6%)
  53. Title                       : English
  54. Language                    : English
  55. Default                     : Yes
  56. Forced                      : No
  57.  
  58. Text #1
  59. ID                          : 3
  60. Format                      : UTF-8
  61. Codec ID                    : S_TEXT/UTF8
  62. Codec ID/Info               : UTF-8 Plain Text
  63. Duration                    : 1 h 29 min
  64. Bit rate                    : 90 b/s
  65. Count of elements           : 1569
  66. Stream size                 : 59.2 KiB (0%)
  67. Language                    : English
  68. Default                     : Yes
  69. Forced                      : No
  70.  
  71. Text #2
  72. ID                          : 4
  73. Format                      : UTF-8
  74. Codec ID                    : S_TEXT/UTF8
  75. Codec ID/Info               : UTF-8 Plain Text
  76. Duration                    : 1 h 29 min
  77. Bit rate                    : 93 b/s
  78. Count of elements           : 1663
  79. Stream size                 : 61.3 KiB (0%)
  80. Title                       : SDH
  81. Language                    : English
  82. Default                     : No
  83. Forced                      : No
  84.  
  85. Text #3
  86. ID                          : 5
  87. Format                      : UTF-8
  88. Codec ID                    : S_TEXT/UTF8
  89. Codec ID/Info               : UTF-8 Plain Text
  90. Duration                    : 1 h 24 min
  91. Bit rate                    : 163 b/s
  92. Count of elements           : 1490
  93. Stream size                 : 101 KiB (0%)
  94. Language                    : Arabic
  95. Default                     : No
  96. Forced                      : No
  97.  
  98. Text #4
  99. ID                          : 6
  100. Format                      : UTF-8
  101. Codec ID                    : S_TEXT/UTF8
  102. Codec ID/Info               : UTF-8 Plain Text
  103. Duration                    : 1 h 24 min
  104. Bit rate                    : 73 b/s
  105. Count of elements           : 1258
  106. Stream size                 : 45.6 KiB (0%)
  107. Language                    : Czech
  108. Default                     : No
  109. Forced                      : No
  110.  
  111. Text #5
  112. ID                          : 7
  113. Format                      : UTF-8
  114. Codec ID                    : S_TEXT/UTF8
  115. Codec ID/Info               : UTF-8 Plain Text
  116. Duration                    : 1 h 24 min
  117. Bit rate                    : 80 b/s
  118. Count of elements           : 1445
  119. Stream size                 : 49.8 KiB (0%)
  120. Language                    : Danish
  121. Default                     : No
  122. Forced                      : No
  123.  
  124. Text #6
  125. ID                          : 8
  126. Format                      : UTF-8
  127. Codec ID                    : S_TEXT/UTF8
  128. Codec ID/Info               : UTF-8 Plain Text
  129. Duration                    : 1 h 24 min
  130. Bit rate                    : 82 b/s
  131. Count of elements           : 1491
  132. Stream size                 : 50.6 KiB (0%)
  133. Language                    : German
  134. Default                     : No
  135. Forced                      : No
  136.  
  137. Text #7
  138. ID                          : 9
  139. Format                      : UTF-8
  140. Codec ID                    : S_TEXT/UTF8
  141. Codec ID/Info               : UTF-8 Plain Text
  142. Duration                    : 1 h 24 min
  143. Bit rate                    : 132 b/s
  144. Count of elements           : 1453
  145. Stream size                 : 81.6 KiB (0%)
  146. Language                    : Greek
  147. Default                     : No
  148. Forced                      : No
  149.  
  150. Text #8
  151. ID                          : 10
  152. Format                      : UTF-8
  153. Codec ID                    : S_TEXT/UTF8
  154. Codec ID/Info               : UTF-8 Plain Text
  155. Duration                    : 1 h 24 min
  156. Bit rate                    : 84 b/s
  157. Count of elements           : 1455
  158. Stream size                 : 52.2 KiB (0%)
  159. Language                    : Spanish
  160. Default                     : No
  161. Forced                      : No
  162.  
  163. Text #9
  164. ID                          : 11
  165. Format                      : UTF-8
  166. Codec ID                    : S_TEXT/UTF8
  167. Codec ID/Info               : UTF-8 Plain Text
  168. Duration                    : 1 h 24 min
  169. Bit rate                    : 74 b/s
  170. Count of elements           : 1491
  171. Stream size                 : 45.7 KiB (0%)
  172. Title                       : European
  173. Language                    : Spanish
  174. Default                     : No
  175. Forced                      : No
  176.  
  177. Text #10
  178. ID                          : 12
  179. Format                      : UTF-8
  180. Codec ID                    : S_TEXT/UTF8
  181. Codec ID/Info               : UTF-8 Plain Text
  182. Duration                    : 1 h 24 min
  183. Bit rate                    : 82 b/s
  184. Count of elements           : 1439
  185. Stream size                 : 51.0 KiB (0%)
  186. Language                    : Finnish
  187. Default                     : No
  188. Forced                      : No
  189.  
  190. Text #11
  191. ID                          : 13
  192. Format                      : UTF-8
  193. Codec ID                    : S_TEXT/UTF8
  194. Codec ID/Info               : UTF-8 Plain Text
  195. Duration                    : 1 h 24 min
  196. Bit rate                    : 88 b/s
  197. Count of elements           : 1481
  198. Stream size                 : 54.3 KiB (0%)
  199. Language                    : French
  200. Default                     : No
  201. Forced                      : No
  202.  
  203. Text #12
  204. ID                          : 14
  205. Format                      : UTF-8
  206. Codec ID                    : S_TEXT/UTF8
  207. Codec ID/Info               : UTF-8 Plain Text
  208. Duration                    : 1 h 24 min
  209. Bit rate                    : 134 b/s
  210. Count of elements           : 1362
  211. Stream size                 : 82.9 KiB (0%)
  212. Language                    : Hebrew
  213. Default                     : No
  214. Forced                      : No
  215.  
  216. Text #13
  217. ID                          : 15
  218. Format                      : UTF-8
  219. Codec ID                    : S_TEXT/UTF8
  220. Codec ID/Info               : UTF-8 Plain Text
  221. Duration                    : 1 h 24 min
  222. Bit rate                    : 231 b/s
  223. Count of elements           : 1492
  224. Stream size                 : 143 KiB (0%)
  225. Language                    : Hindi
  226. Default                     : No
  227. Forced                      : No
  228.  
  229. Text #14
  230. ID                          : 16
  231. Format                      : UTF-8
  232. Codec ID                    : S_TEXT/UTF8
  233. Codec ID/Info               : UTF-8 Plain Text
  234. Duration                    : 1 h 24 min
  235. Bit rate                    : 80 b/s
  236. Count of elements           : 1489
  237. Stream size                 : 49.4 KiB (0%)
  238. Language                    : Hungarian
  239. Default                     : No
  240. Forced                      : No
  241.  
  242. Text #15
  243. ID                          : 17
  244. Format                      : UTF-8
  245. Codec ID                    : S_TEXT/UTF8
  246. Codec ID/Info               : UTF-8 Plain Text
  247. Duration                    : 1 h 24 min
  248. Bit rate                    : 88 b/s
  249. Count of elements           : 1495
  250. Stream size                 : 54.5 KiB (0%)
  251. Language                    : Indonesian
  252. Default                     : No
  253. Forced                      : No
  254.  
  255. Text #16
  256. ID                          : 18
  257. Format                      : UTF-8
  258. Codec ID                    : S_TEXT/UTF8
  259. Codec ID/Info               : UTF-8 Plain Text
  260. Duration                    : 1 h 24 min
  261. Bit rate                    : 88 b/s
  262. Count of elements           : 1482
  263. Stream size                 : 54.6 KiB (0%)
  264. Language                    : Italian
  265. Default                     : No
  266. Forced                      : No
  267.  
  268. Text #17
  269. ID                          : 19
  270. Format                      : UTF-8
  271. Codec ID                    : S_TEXT/UTF8
  272. Codec ID/Info               : UTF-8 Plain Text
  273. Duration                    : 1 h 24 min
  274. Bit rate                    : 89 b/s
  275. Count of elements           : 1517
  276. Stream size                 : 55.1 KiB (0%)
  277. Language                    : Japanese
  278. Default                     : No
  279. Forced                      : No
  280.  
  281. Text #18
  282. ID                          : 20
  283. Format                      : UTF-8
  284. Codec ID                    : S_TEXT/UTF8
  285. Codec ID/Info               : UTF-8 Plain Text
  286. Duration                    : 1 h 24 min
  287. Bit rate                    : 99 b/s
  288. Count of elements           : 1503
  289. Stream size                 : 61.5 KiB (0%)
  290. Language                    : Korean
  291. Default                     : No
  292. Forced                      : No
  293.  
  294. Text #19
  295. ID                          : 21
  296. Format                      : UTF-8
  297. Codec ID                    : S_TEXT/UTF8
  298. Codec ID/Info               : UTF-8 Plain Text
  299. Duration                    : 1 h 24 min
  300. Bit rate                    : 84 b/s
  301. Count of elements           : 1482
  302. Stream size                 : 52.1 KiB (0%)
  303. Language                    : Norwegian Bokmal
  304. Default                     : No
  305. Forced                      : No
  306.  
  307. Text #20
  308. ID                          : 22
  309. Format                      : UTF-8
  310. Codec ID                    : S_TEXT/UTF8
  311. Codec ID/Info               : UTF-8 Plain Text
  312. Duration                    : 1 h 24 min
  313. Bit rate                    : 81 b/s
  314. Count of elements           : 1480
  315. Stream size                 : 50.3 KiB (0%)
  316. Language                    : Dutch
  317. Default                     : No
  318. Forced                      : No
  319.  
  320. Text #21
  321. ID                          : 23
  322. Format                      : UTF-8
  323. Codec ID                    : S_TEXT/UTF8
  324. Codec ID/Info               : UTF-8 Plain Text
  325. Duration                    : 1 h 24 min
  326. Bit rate                    : 79 b/s
  327. Count of elements           : 1489
  328. Stream size                 : 49.2 KiB (0%)
  329. Language                    : Polish
  330. Default                     : No
  331. Forced                      : No
  332.  
  333. Text #22
  334. ID                          : 24
  335. Format                      : UTF-8
  336. Codec ID                    : S_TEXT/UTF8
  337. Codec ID/Info               : UTF-8 Plain Text
  338. Duration                    : 1 h 24 min
  339. Bit rate                    : 86 b/s
  340. Count of elements           : 1475
  341. Stream size                 : 53.5 KiB (0%)
  342. Language                    : Portuguese
  343. Default                     : No
  344. Forced                      : No
  345.  
  346. Text #23
  347. ID                          : 25
  348. Format                      : UTF-8
  349. Codec ID                    : S_TEXT/UTF8
  350. Codec ID/Info               : UTF-8 Plain Text
  351. Duration                    : 1 h 24 min
  352. Bit rate                    : 86 b/s
  353. Count of elements           : 1496
  354. Stream size                 : 53.0 KiB (0%)
  355. Title                       : Brazilian
  356. Language                    : Portuguese
  357. Default                     : No
  358. Forced                      : No
  359.  
  360. Text #24
  361. ID                          : 26
  362. Format                      : UTF-8
  363. Codec ID                    : S_TEXT/UTF8
  364. Codec ID/Info               : UTF-8 Plain Text
  365. Duration                    : 1 h 24 min
  366. Bit rate                    : 92 b/s
  367. Count of elements           : 1483
  368. Stream size                 : 56.8 KiB (0%)
  369. Language                    : Romanian
  370. Default                     : No
  371. Forced                      : No
  372.  
  373. Text #25
  374. ID                          : 27
  375. Format                      : UTF-8
  376. Codec ID                    : S_TEXT/UTF8
  377. Codec ID/Info               : UTF-8 Plain Text
  378. Duration                    : 1 h 24 min
  379. Bit rate                    : 137 b/s
  380. Count of elements           : 1489
  381. Stream size                 : 84.4 KiB (0%)
  382. Language                    : Russian
  383. Default                     : No
  384. Forced                      : No
  385.  
  386. Text #26
  387. ID                          : 28
  388. Format                      : UTF-8
  389. Codec ID                    : S_TEXT/UTF8
  390. Codec ID/Info               : UTF-8 Plain Text
  391. Duration                    : 1 h 24 min
  392. Bit rate                    : 86 b/s
  393. Count of elements           : 1370
  394. Stream size                 : 53.5 KiB (0%)
  395. Language                    : Swedish
  396. Default                     : No
  397. Forced                      : No
  398.  
  399. Text #27
  400. ID                          : 29
  401. Format                      : UTF-8
  402. Codec ID                    : S_TEXT/UTF8
  403. Codec ID/Info               : UTF-8 Plain Text
  404. Duration                    : 1 h 24 min
  405. Bit rate                    : 206 b/s
  406. Count of elements           : 1485
  407. Stream size                 : 127 KiB (0%)
  408. Language                    : Thai
  409. Default                     : No
  410. Forced                      : No
  411.  
  412. Text #28
  413. ID                          : 30
  414. Format                      : UTF-8
  415. Codec ID                    : S_TEXT/UTF8
  416. Codec ID/Info               : UTF-8 Plain Text
  417. Duration                    : 1 h 24 min
  418. Bit rate                    : 89 b/s
  419. Count of elements           : 1481
  420. Stream size                 : 55.4 KiB (0%)
  421. Language                    : Turkish
  422. Default                     : No
  423. Forced                      : No
  424.  
  425. Text #29
  426. ID                          : 31
  427. Format                      : UTF-8
  428. Codec ID                    : S_TEXT/UTF8
  429. Codec ID/Info               : UTF-8 Plain Text
  430. Duration                    : 1 h 24 min
  431. Bit rate                    : 133 b/s
  432. Count of elements           : 1492
  433. Stream size                 : 82.5 KiB (0%)
  434. Language                    : Vietnamese
  435. Default                     : No
  436. Forced                      : No
  437.  
  438. Text #30
  439. ID                          : 32
  440. Format                      : UTF-8
  441. Codec ID                    : S_TEXT/UTF8
  442. Codec ID/Info               : UTF-8 Plain Text
  443. Duration                    : 1 h 24 min
  444. Bit rate                    : 84 b/s
  445. Count of elements           : 1488
  446. Stream size                 : 52.1 KiB (0%)
  447. Title                       : Simplified
  448. Language                    : Chinese
  449. Default                     : No
  450. Forced                      : No
  451.  
  452. Text #31
  453. ID                          : 33
  454. Format                      : UTF-8
  455. Codec ID                    : S_TEXT/UTF8
  456. Codec ID/Info               : UTF-8 Plain Text
  457. Duration                    : 1 h 24 min
  458. Bit rate                    : 84 b/s
  459. Count of elements           : 1487
  460. Stream size                 : 52.3 KiB (0%)
  461. Title                       : Traditional
  462. Language                    : Chinese
  463. Default                     : No
  464. Forced                      : No