The text below is selected, press Ctrl+C to copy to your clipboard. (⌘+C on Mac) No line numbers will be copied.
The Santa Clauses (2022) S01E01...

23rd November 2022 08:25:43 AM | Views: 12
  1. Format                                   : Matroska
  2. Format version                           : Version 4
  3. File size                                : 283 MiB
  4. Duration                                 : 30 min 42 s
  5. Overall bit rate                         : 1 291 kb/s
  6. Movie name                               : The Santa Clauses (2022) S01E01 [Good to Ho] REMASTERED DS4K 720p DSNP WEB-DL x264 English DD5.1 ESub 283MB [MoviezAddiction.life]
  7. Encoded date                             : UTC 2022-11-23 06:22:23
  8. Writing application                      : mkvmerge v72.0.0 ('Minuano (Six-eight)') 64-bit
  9. Writing library                          : libebml v1.4.4 + libmatroska v1.7.1
  10.  
  11. Video
  12. ID                                       : 1
  13. Format                                   : AVC
  14. Format/Info                              : Advanced Video Codec
  15. Format profile                           : [email protected]
  16. Format settings                          : CABAC / 4 Ref Frames
  17. Format settings, CABAC                   : Yes
  18. Format settings, Reference frames        : 4 frames
  19. Codec ID                                 : V_MPEG4/ISO/AVC
  20. Duration                                 : 30 min 40 s
  21. Bit rate                                 : 1 099 kb/s
  22. Width                                    : 1 280 pixels
  23. Height                                   : 582 pixels
  24. Display aspect ratio                     : 2.2:1
  25. Original display aspect ratio            : 2.2:1
  26. Frame rate mode                          : Variable
  27. Frame rate                               : 23.976 FPS
  28. Color space                              : YUV
  29. Chroma subsampling                       : 4:2:0
  30. Bit depth                                : 8 bits
  31. Scan type                                : Progressive
  32. Bits/(Pixel*Frame)                       : 0.062
  33. Stream size                              : 241 MiB (85%)
  34. Default                                  : Yes
  35. Forced                                   : No
  36. Color range                              : Limited
  37. Color primaries                          : BT.709
  38. Transfer characteristics                 : BT.709
  39. Matrix coefficients                      : BT.709
  40.  
  41. Audio
  42. ID                                       : 2
  43. Format                                   : AAC LC SBR
  44. Format/Info                              : Advanced Audio Codec Low Complexity with Spectral Band Replication
  45. Commercial name                          : HE-AAC
  46. Format settings                          : Explicit
  47. Codec ID                                 : A_AAC-2
  48. Duration                                 : 30 min 42 s
  49. Bit rate                                 : 192 kb/s
  50. Channel(s)                               : 6 channels
  51. Channel layout                           : C L R Ls Rs LFE
  52. Sampling rate                            : 48.0 kHz
  53. Frame rate                               : 23.438 FPS (2048 SPF)
  54. Compression mode                         : Lossy
  55. Delay relative to video                  : -9 ms
  56. Stream size                              : 41.9 MiB (15%)
  57. Title                                    : English
  58. Language                                 : English
  59. Default                                  : Yes
  60. Forced                                   : No
  61.  
  62. Text
  63. ID                                       : 3
  64. Format                                   : UTF-8
  65. Codec ID                                 : S_TEXT/UTF8
  66. Codec ID/Info                            : UTF-8 Plain Text
  67. Duration                                 : 28 min 30 s
  68. Bit rate                                 : 98 b/s
  69. Frame rate                               : 0.343 FPS
  70. Count of elements                        : 587
  71. Stream size                              : 20.6 KiB (0%)
  72. Title                                    : English [SRT]
  73. Language                                 : English
  74. Default                                  : Yes
  75. Forced                                   : No