The text below is selected, press Ctrl+C to copy to your clipboard. (⌘+C on Mac) No line numbers will be copied.
The Thing (1982) ARROW REMASTERED...

6th November 2022 04:11:49 PM | Views: 27
  1. Format                                   : Matroska
  2. Format version                           : Version 4
  3. File size                                : 1.16 GiB
  4. Duration                                 : 1 h 48 min
  5. Overall bit rate                         : 1 533 kb/s
  6. Movie name                               : The Thing (1982) ARROW REMASTERED 720p BluRay x264 Dual Audio [Hindi VCD DD2.0 + English BD5.1] ESub 1.16GB [MoviezAddiction.life]
  7. Encoded date                             : UTC 2022-11-06 09:50:07
  8. Writing application                      : mkvmerge v71.1.0 ('Fortitude') 64-bit
  9. Writing library                          : libebml v1.4.4 + libmatroska v1.7.1
  10.  
  11. Video
  12. ID                                       : 1
  13. Format                                   : AVC
  14. Format/Info                              : Advanced Video Codec
  15. Format profile                           : [email protected]
  16. Format settings                          : CABAC / 4 Ref Frames
  17. Format settings, CABAC                   : Yes
  18. Format settings, Reference frames        : 4 frames
  19. Codec ID                                 : V_MPEG4/ISO/AVC
  20. Duration                                 : 1 h 48 min
  21. Bit rate                                 : 1 099 kb/s
  22. Width                                    : 1 280 pixels
  23. Height                                   : 544 pixels
  24. Display aspect ratio                     : 2.35:1
  25. Frame rate mode                          : Variable
  26. Frame rate                               : 23.976 (24000/1001) FPS
  27. Color space                              : YUV
  28. Chroma subsampling                       : 4:2:0
  29. Bit depth                                : 8 bits
  30. Scan type                                : Progressive
  31. Bits/(Pixel*Frame)                       : 0.066
  32. Stream size                              : 853 MiB (72%)
  33. Default                                  : Yes
  34. Forced                                   : No
  35. Color range                              : Limited
  36. Color primaries                          : BT.709
  37. Transfer characteristics                 : BT.709
  38. Matrix coefficients                      : BT.709
  39.  
  40. Audio #1
  41. ID                                       : 2
  42. Format                                   : AC-3
  43. Format/Info                              : Audio Coding 3
  44. Commercial name                          : Dolby Digital
  45. Codec ID                                 : A_AC3
  46. Duration                                 : 1 h 48 min
  47. Bit rate mode                            : Constant
  48. Bit rate                                 : 224 kb/s
  49. Channel(s)                               : 2 channels
  50. Channel layout                           : L R
  51. Sampling rate                            : 48.0 kHz
  52. Frame rate                               : 31.250 FPS (1536 SPF)
  53. Compression mode                         : Lossy
  54. Stream size                              : 174 MiB (15%)
  55. Title                                    : Hindi
  56. Language                                 : Hindi
  57. Service kind                             : Complete Main
  58. Default                                  : Yes
  59. Forced                                   : No
  60.  
  61. Audio #2
  62. ID                                       : 3
  63. Format                                   : AAC LC SBR
  64. Format/Info                              : Advanced Audio Codec Low Complexity with Spectral Band Replication
  65. Commercial name                          : HE-AAC
  66. Format settings                          : Explicit
  67. Codec ID                                 : A_AAC-2
  68. Duration                                 : 1 h 48 min
  69. Bit rate                                 : 192 kb/s
  70. Channel(s)                               : 6 channels
  71. Channel layout                           : C L R Ls Rs LFE
  72. Sampling rate                            : 48.0 kHz
  73. Frame rate                               : 23.438 FPS (2048 SPF)
  74. Compression mode                         : Lossy
  75. Delay relative to video                  : -990 ms
  76. Stream size                              : 148 MiB (12%)
  77. Title                                    : English
  78. Language                                 : English
  79. Default                                  : Yes
  80. Forced                                   : No
  81.  
  82. Text
  83. ID                                       : 4
  84. Format                                   : PGS
  85. Codec ID                                 : S_HDMV/PGS
  86. Codec ID/Info                            : Picture based subtitle format used on BDs/HD-DVDs
  87. Duration                                 : 1 h 36 min
  88. Bit rate                                 : 19.1 kb/s
  89. Frame rate                               : 0.219 FPS
  90. Count of elements                        : 1266
  91. Stream size                              : 13.2 MiB (1%)
  92. Title                                    : English [PGS]
  93. Language                                 : English
  94. Default                                  : Yes
  95. Forced                                   : No
  96.  
  97. Menu
  98. 00:00:00.990                             : en:Chapter 01
  99. 00:02:07.908                             : en:Chapter 02
  100. 00:10:23.069                             : en:Chapter 03
  101. 00:15:48.728                             : en:Chapter 04
  102. 00:22:13.195                             : en:Chapter 05
  103. 00:27:00.482                             : en:Chapter 06
  104. 00:33:03.261                             : en:Chapter 07
  105. 00:37:21.645                             : en:Chapter 08
  106. 00:41:43.698                             : en:Chapter 09
  107. 00:46:30.943                             : en:Chapter 10
  108. 00:52:15.788                             : en:Chapter 11
  109. 00:57:35.482                             : en:Chapter 12
  110. 01:01:01.647                             : en:Chapter 13
  111. 01:06:15.377                             : en:Chapter 14
  112. 01:09:50.925                             : en:Chapter 15
  113. 01:14:22.613                             : en:Chapter 16
  114. 01:18:44.333                             : en:Chapter 17
  115. 01:27:59.429                             : en:Chapter 18
  116. 01:33:20.417                             : en:Chapter 19
  117. 01:37:48.268                             : en:Chapter 20
  118. 01:39:13.019                             : en:Chapter 21
  119. 01:42:08.694                             : en:Chapter 22
  120. 01:48:33.329                             : en:Chapter 23