The text below is selected, press Ctrl+C to copy to your clipboard. (⌘+C on Mac) No line numbers will be copied.
The Kissing Booth (2018) 720p...

27th June 2020 09:48:21 AM | Views: 36
  1. Format                                   : Matroska
  2. Format version                           : Version 4
  3. File size                                : 932 MiB
  4. Duration                                 : 1 h 45 min
  5. Overall bit rate                         : 1 232 kb/s
  6. Movie name                               : The Kissing Booth (2018) 720p WEB-DL x265 10bit HEVC Dual Audio [Hindi DD5.1 + English DD5.1] ESub 932MB [Www.MoviezAddiction.site]
  7. Encoded date                             : UTC 2020-06-27 03:20:54
  8. Writing application                      : mkvmerge v47.0.0 ('Black Flag') 64-bit
  9. Writing library                          : libebml v1.3.10 + libmatroska v1.5.2
  10.  
  11. Video
  12. ID                                       : 1
  13. Format                                   : HEVC
  14. Format/Info                              : High Efficiency Video Coding
  15. Format profile                           : Main [email protected]@Main
  16. Codec ID                                 : V_MPEGH/ISO/HEVC
  17. Duration                                 : 1 h 45 min
  18. Bit rate                                 : 854 kb/s
  19. Width                                    : 1 280 pixels
  20. Height                                   : 584 pixels
  21. Display aspect ratio                     : 2.2:1
  22. Frame rate mode                          : Constant
  23. Frame rate                               : 23.976 (24000/1001) FPS
  24. Color space                              : YUV
  25. Chroma subsampling                       : 4:2:0
  26. Bit depth                                : 10 bits
  27. Bits/(Pixel*Frame)                       : 0.048
  28. Stream size                              : 642 MiB (69%)
  29. Title                                    : [Www.MoviezAddiction.site]
  30. Default                                  : Yes
  31. Forced                                   : No
  32.  
  33. Audio #1
  34. ID                                       : 2
  35. Format                                   : AAC LC
  36. Format/Info                              : Advanced Audio Codec Low Complexity
  37. Codec ID                                 : A_AAC-2
  38. Duration                                 : 1 h 45 min
  39. Bit rate                                 : 192 kb/s
  40. Channel(s)                               : 6 channels
  41. Channel layout                           : C L R Ls Rs LFE
  42. Sampling rate                            : 48.0 kHz
  43. Frame rate                               : 46.875 FPS (1024 SPF)
  44. Compression mode                         : Lossy
  45. Stream size                              : 144 MiB (15%)
  46. Title                                    : [Www.MoviezAddiction.site] - English
  47. Language                                 : English
  48. Default                                  : No
  49. Forced                                   : No
  50.  
  51. Audio #2
  52. ID                                       : 3
  53. Format                                   : AAC LC
  54. Format/Info                              : Advanced Audio Codec Low Complexity
  55. Codec ID                                 : A_AAC-2
  56. Duration                                 : 1 h 45 min
  57. Bit rate                                 : 192 kb/s
  58. Channel(s)                               : 6 channels
  59. Channel layout                           : C L R Ls Rs LFE
  60. Sampling rate                            : 48.0 kHz
  61. Frame rate                               : 46.875 FPS (1024 SPF)
  62. Compression mode                         : Lossy
  63. Stream size                              : 144 MiB (15%)
  64. Title                                    : [Www.MoviezAddiction.site] - Hindi
  65. Language                                 : Hindi
  66. Default                                  : Yes
  67. Forced                                   : Yes
  68.  
  69. Text
  70. ID                                       : 4
  71. Format                                   : UTF-8
  72. Codec ID                                 : S_TEXT/UTF8
  73. Codec ID/Info                            : UTF-8 Plain Text
  74. Duration                                 : 1 h 43 min
  75. Bit rate                                 : 72 b/s
  76. Count of elements                        : 1705
  77. Stream size                              : 55.1 KiB (0%)
  78. Title                                    : [Www.MoviezAddiction.site] - English
  79. Language                                 : English
  80. Default                                  : Yes
  81. Forced                                   : Yes