The text below is selected, press Ctrl+C to copy to your clipboard. (⌘+C on Mac) No line numbers will be copied.
Blonde (2022) REMASTERED DS4K 1080p...

8th November 2022 02:26:53 PM | Views: 19
  1. Format                                   : Matroska
  2. Format version                           : Version 4
  3. File size                                : 6.33 GiB
  4. Duration                                 : 2 h 47 min
  5. Overall bit rate                         : 5 410 kb/s
  6. Movie name                               : Blonde (2022) REMASTERED DS4K 1080p NF WEB-DL x264 Dual Audio [Hindi DDP5.1 + English DDP5.1 Atmos] ESub 6.32GB [MoviezAddiction.life]
  7. Encoded date                             : UTC 2022-11-08 12:01:28
  8. Writing application                      : mkvmerge v71.1.0 ('Fortitude') 64-bit
  9. Writing library                          : libebml v1.4.4 + libmatroska v1.7.1
  10.  
  11. Video
  12. ID                                       : 1
  13. Format                                   : AVC
  14. Format/Info                              : Advanced Video Codec
  15. Format profile                           : [email protected]
  16. Format settings                          : CABAC / 4 Ref Frames
  17. Format settings, CABAC                   : Yes
  18. Format settings, Reference frames        : 4 frames
  19. Codec ID                                 : V_MPEG4/ISO/AVC
  20. Duration                                 : 2 h 47 min
  21. Bit rate                                 : 4 000 kb/s
  22. Width                                    : 1 920 pixels
  23. Height                                   : 1 080 pixels
  24. Display aspect ratio                     : 16:9
  25. Frame rate mode                          : Variable
  26. Frame rate                               : 24.000 FPS
  27. Color space                              : YUV
  28. Chroma subsampling                       : 4:2:0
  29. Bit depth                                : 8 bits
  30. Scan type                                : Progressive
  31. Bits/(Pixel*Frame)                       : 0.080
  32. Stream size                              : 4.68 GiB (74%)
  33. Default                                  : Yes
  34. Forced                                   : No
  35. Color range                              : Limited
  36. Color primaries                          : BT.709
  37. Transfer characteristics                 : BT.709
  38. Matrix coefficients                      : BT.709
  39.  
  40. Audio #1
  41. ID                                       : 2
  42. Format                                   : E-AC-3
  43. Format/Info                              : Enhanced AC-3
  44. Commercial name                          : Dolby Digital Plus
  45. Codec ID                                 : A_EAC3
  46. Duration                                 : 2 h 47 min
  47. Bit rate mode                            : Constant
  48. Bit rate                                 : 640 kb/s
  49. Channel(s)                               : 6 channels
  50. Channel layout                           : L R C LFE Ls Rs
  51. Sampling rate                            : 48.0 kHz
  52. Frame rate                               : 31.250 FPS (1536 SPF)
  53. Compression mode                         : Lossy
  54. Stream size                              : 767 MiB (12%)
  55. Title                                    : Hindi
  56. Language                                 : Hindi
  57. Service kind                             : Complete Main
  58. Default                                  : Yes
  59. Forced                                   : No
  60.  
  61. Audio #2
  62. ID                                       : 3
  63. Format                                   : E-AC-3 JOC
  64. Format/Info                              : Enhanced AC-3 with Joint Object Coding
  65. Commercial name                          : Dolby Digital Plus with Dolby Atmos
  66. Codec ID                                 : A_EAC3
  67. Duration                                 : 2 h 47 min
  68. Bit rate mode                            : Constant
  69. Bit rate                                 : 768 kb/s
  70. Channel(s)                               : 6 channels
  71. Channel layout                           : L R C LFE Ls Rs
  72. Sampling rate                            : 48.0 kHz
  73. Frame rate                               : 31.250 FPS (1536 SPF)
  74. Compression mode                         : Lossy
  75. Stream size                              : 920 MiB (14%)
  76. Title                                    : English
  77. Language                                 : English
  78. Service kind                             : Complete Main
  79. Default                                  : No
  80. Forced                                   : No
  81. Complexity index                         : 16
  82. Number of dynamic objects                : 15
  83. Bed channel count                        : 1 channel
  84. Bed channel configuration                : LFE
  85.  
  86. Text
  87. ID                                       : 4
  88. Format                                   : UTF-8
  89. Codec ID                                 : S_TEXT/UTF8
  90. Codec ID/Info                            : UTF-8 Plain Text
  91. Duration                                 : 2 h 35 min
  92. Bit rate                                 : 35 b/s
  93. Frame rate                               : 0.142 FPS
  94. Count of elements                        : 1331
  95. Stream size                              : 41.0 KiB (0%)
  96. Title                                    : English [SRT]
  97. Language                                 : English
  98. Default                                  : Yes
  99. Forced                                   : No
  100.  
  101. Menu
  102. 00:00:00.000                             : en:Part 01
  103. 02:43:12.000                             : en:Credits