The text below is selected, press Ctrl+C to copy to your clipboard. (⌘+C on Mac) No line numbers will be copied.
The Theory of Everything (2014)...

16th October 2020 07:53:23 AM | Views: 22
  1. Format                                   : Matroska
  2. Format version                           : Version 4
  3. File size                                : 1.23 GiB
  4. Duration                                 : 2 h 3 min
  5. Overall bit rate                         : 1 427 kb/s
  6. Movie name                               : The Theory of Everything (2014) 720p Bluray x264 Dual Audio [ Hindi DD5.1 + English DD5.1 ] ESubs [www.MoviezAddiction.space]
  7. Encoded date                             : UTC 2020-10-16 05:48:19
  8. Writing application                      : mkvmerge v51.0.0 ('I Wish') 64-bit
  9. Writing library                          : libebml v1.4.0 + libmatroska v1.6.2
  10.  
  11. Video
  12. ID                                       : 4
  13. Format                                   : AVC
  14. Format/Info                              : Advanced Video Codec
  15. Format profile                           : [email protected]
  16. Format settings                          : CABAC / 8 Ref Frames
  17. Format settings, CABAC                   : Yes
  18. Format settings, Reference frames        : 8 frames
  19. Codec ID                                 : V_MPEG4/ISO/AVC
  20. Duration                                 : 2 h 3 min
  21. Bit rate                                 : 1 048 kb/s
  22. Width                                    : 1 280 pixels
  23. Height                                   : 536 pixels
  24. Display aspect ratio                     : 2.40:1
  25. Frame rate mode                          : Constant
  26. Frame rate                               : 23.976 (24000/1001) FPS
  27. Color space                              : YUV
  28. Chroma subsampling                       : 4:2:0
  29. Bit depth                                : 8 bits
  30. Scan type                                : Progressive
  31. Bits/(Pixel*Frame)                       : 0.064
  32. Stream size                              : 924 MiB (73%)
  33. Title                                    : [www.MoviezAddiction.space]
  34. Writing library                          : x264 core 148 r2694 3b70645
  35. Encoding settings                        : cabac=1 / ref=8 / deblock=1:-3:-3 / analyse=0x3:0x133 / me=umh / subme=10 / psy=1 / psy_rd=1.00:0.15 / mixed_ref=1 / me_range=32 / chroma_me=1 / trellis=2 / 8x8dct=1 / cqm=0 / deadzone=21,11 / fast_pskip=1 / chroma_qp_offset=-3 / threads=17 / lookahead_threads=1 / sliced_threads=0 / nr=0 / decimate=1 / interlaced=0 / bluray_compat=0 / constrained_intra=0 / bframes=3 / b_pyramid=2 / b_adapt=2 / b_bias=0 / direct=3 / weightb=1 / open_gop=0 / weightp=2 / keyint=250 / keyint_min=23 / scenecut=40 / intra_refresh=0 / rc_lookahead=60 / rc=2pass / mbtree=1 / bitrate=1048 / ratetol=1.0 / qcomp=0.65 / qpmin=0 / qpmax=69 / qpstep=4 / cplxblur=20.0 / qblur=0.5 / vbv_maxrate=22500 / vbv_bufsize=20000 / nal_hrd=none / filler=0 / ip_ratio=1.40 / aq=3:0.70
  36. Language                                 : English
  37. Default                                  : Yes
  38. Forced                                   : No
  39.  
  40. Audio #1
  41. ID                                       : 3
  42. Format                                   : AAC LC
  43. Format/Info                              : Advanced Audio Codec Low Complexity
  44. Codec ID                                 : A_AAC-2
  45. Duration                                 : 2 h 3 min
  46. Bit rate                                 : 192 kb/s
  47. Channel(s)                               : 6 channels
  48. Channel layout                           : C L R Ls Rs LFE
  49. Sampling rate                            : 48.0 kHz
  50. Frame rate                               : 46.875 FPS (1024 SPF)
  51. Compression mode                         : Lossy
  52. Stream size                              : 167 MiB (13%)
  53. Title                                    : [www.MoviezAddiction.space]
  54. Language                                 : English
  55. Default                                  : No
  56. Forced                                   : No
  57.  
  58. Audio #2
  59. ID                                       : 5
  60. Format                                   : AAC LC
  61. Format/Info                              : Advanced Audio Codec Low Complexity
  62. Codec ID                                 : A_AAC-2
  63. Duration                                 : 2 h 3 min
  64. Bit rate                                 : 192 kb/s
  65. Channel(s)                               : 6 channels
  66. Channel layout                           : C L R Ls Rs LFE
  67. Sampling rate                            : 48.0 kHz
  68. Frame rate                               : 46.875 FPS (1024 SPF)
  69. Compression mode                         : Lossy
  70. Delay relative to video                  : -6 s 578 ms
  71. Stream size                              : 167 MiB (13%)
  72. Title                                    : [www.MoviezAddiction.space]
  73. Language                                 : Hindi
  74. Default                                  : Yes
  75. Forced                                   : Yes
  76.  
  77. Text #1
  78. ID                                       : 1
  79. Format                                   : UTF-8
  80. Codec ID                                 : S_TEXT/UTF8
  81. Codec ID/Info                            : UTF-8 Plain Text
  82. Duration                                 : 1 h 53 min
  83. Bit rate                                 : 38 b/s
  84. Count of elements                        : 1040
  85. Stream size                              : 32.5 KiB (0%)
  86. Title                                    : [www.MoviezAddiction.space]
  87. Language                                 : English
  88. Default                                  : No
  89. Forced                                   : No
  90.  
  91. Text #2
  92. ID                                       : 2
  93. Format                                   : UTF-8
  94. Codec ID                                 : S_TEXT/UTF8
  95. Codec ID/Info                            : UTF-8 Plain Text
  96. Duration                                 : 1 h 53 min
  97. Bit rate                                 : 44 b/s
  98. Count of elements                        : 1357
  99. Stream size                              : 37.0 KiB (0%)
  100. Title                                    : [www.MoviezAddiction.space]
  101. Language                                 : English
  102. Default                                  : Yes
  103. Forced                                   : Yes
  104.  
  105. Menu
  106. 00:00:00.000                             : en:Chapter 01
  107. 00:05:38.838                             : en:Chapter 02
  108. 00:10:19.619                             : en:Chapter 03
  109. 00:14:58.647                             : en:Chapter 04
  110. 00:19:52.524                             : en:Chapter 05
  111. 00:27:27.479                             : en:Chapter 06
  112. 00:36:14.672                             : en:Chapter 07
  113. 00:42:12.988                             : en:Chapter 08
  114. 00:49:21.541                             : en:Chapter 09
  115. 00:54:10.622                             : en:Chapter 10
  116. 01:01:03.785                             : en:Chapter 11
  117. 01:10:29.516                             : en:Chapter 12
  118. 01:17:11.084                             : en:Chapter 13
  119. 01:24:26.227                             : en:Chapter 14
  120. 01:30:39.100                             : en:Chapter 15
  121. 01:35:16.961                             : en:Chapter 16
  122. 01:40:20.931                             : en:Chapter 17
  123. 01:45:01.044                             : en:Chapter 18
  124. 01:52:26.448                             : en:Chapter 19
  125. 01:57:04.058                             : en:Chapter 20