The text below is selected, press Ctrl+C to copy to your clipboard. (⌘+C on Mac) No line numbers will be copied.
211 (2018) 1080p

12th January 2022 02:32:13 AM | Views: 13
  1. Format                                   : Matroska
  2. Format version                           : Version 4
  3. File size                                : 3.92 GiB
  4. Duration                                 : 1 h 27 min
  5. Overall bit rate mode                    : Variable
  6. Overall bit rate                         : 6 446 kb/s
  7. Movie name                               : 211 (2018) 1080p BluRay x264 Dual Audio [Hindi DD2.0 + English DTS-HD MA 5.1] ESub 3.91GB [www.MoviezAddiction.art]
  8. Encoded date                             : UTC 2022-01-12 00:44:49
  9. Writing application                      : mkvmerge v47.0.0 ('Black Flag') 64-bit
  10. Writing library                          : libebml v1.3.10 + libmatroska v1.5.2
  11.  
  12. Video
  13. ID                                       : 1
  14. Format                                   : AVC
  15. Format/Info                              : Advanced Video Codec
  16. Format profile                           : [email protected]
  17. Format settings                          : CABAC / 4 Ref Frames
  18. Format settings, CABAC                   : Yes
  19. Format settings, Reference frames        : 4 frames
  20. Codec ID                                 : V_MPEG4/ISO/AVC
  21. Duration                                 : 1 h 27 min
  22. Bit rate                                 : 4 000 kb/s
  23. Width                                    : 1 920 pixels
  24. Height                                   : 1 040 pixels
  25. Display aspect ratio                     : 1.85:1
  26. Frame rate mode                          : Variable
  27. Frame rate                               : 23.976 (24000/1001) FPS
  28. Color space                              : YUV
  29. Chroma subsampling                       : 4:2:0
  30. Bit depth                                : 8 bits
  31. Scan type                                : Progressive
  32. Bits/(Pixel*Frame)                       : 0.084
  33. Stream size                              : 2.43 GiB (62%)
  34. Title                                    : [www.MoviezAddiction.art]
  35. Default                                  : Yes
  36. Forced                                   : No
  37. Color range                              : Limited
  38. Color primaries                          : BT.709
  39. Transfer characteristics                 : BT.709
  40. Matrix coefficients                      : BT.709
  41.  
  42. Audio #1
  43. ID                                       : 2
  44. Format                                   : AC-3
  45. Format/Info                              : Audio Coding 3
  46. Commercial name                          : Dolby Digital
  47. Codec ID                                 : A_AC3
  48. Duration                                 : 1 h 27 min
  49. Bit rate mode                            : Constant
  50. Bit rate                                 : 448 kb/s
  51. Channel(s)                               : 2 channels
  52. Channel layout                           : L R
  53. Sampling rate                            : 48.0 kHz
  54. Frame rate                               : 31.250 FPS (1536 SPF)
  55. Compression mode                         : Lossy
  56. Delay relative to video                  : 15 ms
  57. Stream size                              : 279 MiB (7%)
  58. Title                                    : [www.MoviezAddiction.art] - Hindi
  59. Language                                 : Hindi
  60. Service kind                             : Complete Main
  61. Default                                  : Yes
  62. Forced                                   : No
  63.  
  64. Audio #2
  65. ID                                       : 3
  66. Format                                   : DTS XLL
  67. Format/Info                              : Digital Theater Systems
  68. Commercial name                          : DTS-HD Master Audio
  69. Codec ID                                 : A_DTS
  70. Duration                                 : 1 h 27 min
  71. Bit rate mode                            : Variable
  72. Bit rate                                 : 1 959 kb/s
  73. Channel(s)                               : 6 channels
  74. Channel layout                           : C L R Ls Rs LFE
  75. Sampling rate                            : 48.0 kHz
  76. Frame rate                               : 93.750 FPS (512 SPF)
  77. Bit depth                                : 16 bits
  78. Compression mode                         : Lossless
  79. Stream size                              : 1.19 GiB (30%)
  80. Title                                    : [www.MoviezAddiction.art] - English
  81. Language                                 : English
  82. Default                                  : No
  83. Forced                                   : No
  84.  
  85. Text
  86. ID                                       : 4
  87. Format                                   : PGS
  88. Codec ID                                 : S_HDMV/PGS
  89. Codec ID/Info                            : Picture based subtitle format used on BDs/HD-DVDs
  90. Duration                                 : 1 h 21 min
  91. Bit rate                                 : 40.6 kb/s
  92. Count of elements                        : 2012
  93. Stream size                              : 23.7 MiB (1%)
  94. Title                                    : [www.MoviezAddiction.art] - English [PGS]
  95. Language                                 : English
  96. Default                                  : Yes
  97. Forced                                   : No
  98.  
  99. Menu
  100. 00:00:00.000                             : Chapter 01
  101. 00:05:50.725                             : Chapter 02
  102. 00:10:14.864                             : Chapter 03
  103. 00:16:36.370                             : Chapter 04
  104. 00:22:31.308                             : Chapter 05
  105. 00:27:17.219                             : Chapter 06
  106. 00:32:44.713                             : Chapter 07
  107. 00:38:48.201                             : Chapter 08
  108. 00:44:38.926                             : Chapter 09
  109. 00:49:44.607                             : Chapter 10
  110. 00:54:29.475                             : Chapter 11
  111. 01:00:32.170                             : Chapter 12
  112. 01:05:32.971                             : Chapter 13
  113. 01:11:29.327                             : Chapter 14
  114. 01:16:34.006                             : Chapter 15
  115. 01:22:27.192                             : Chapter 16