The text below is selected, press Ctrl+C to copy to your clipboard. (⌘+C on Mac) No line numbers will be copied.
The A-Team (2010) EXTENDED 1080p...

23rd January 2023 03:30:21 AM | Views: 8
  1. Format                                   : Matroska
  2. Format version                           : Version 4
  3. File size                                : 3.46 GiB
  4. Duration                                 : 2 h 13 min
  5. Overall bit rate                         : 3 706 kb/s
  6. Movie name                               : The A-Team (2010) EXTENDED 1080p BluRay x265 10bit HEVC Dual Audio [Hindi BD5.1 + English DTS 5.1] ESub 3.45GB [MoviezAddiction]
  7. Encoded date                             : UTC 2023-01-23 01:33:59
  8. Writing application                      : mkvmerge v72.0.0 ('Minuano (Six-eight)') 64-bit
  9. Writing library                          : libebml v1.4.4 + libmatroska v1.7.1
  10.  
  11. Video
  12. ID                                       : 1
  13. Format                                   : HEVC
  14. Format/Info                              : High Efficiency Video Coding
  15. Format profile                           : Main [email protected]@Main
  16. Codec ID                                 : V_MPEGH/ISO/HEVC
  17. Duration                                 : 2 h 13 min
  18. Bit rate                                 : 1 701 kb/s
  19. Width                                    : 1 920 pixels
  20. Height                                   : 816 pixels
  21. Display aspect ratio                     : 2.35:1
  22. Frame rate mode                          : Variable
  23. Frame rate                               : 23.976 (24000/1001) FPS
  24. Color space                              : YUV
  25. Chroma subsampling                       : 4:2:0
  26. Bit depth                                : 10 bits
  27. Bits/(Pixel*Frame)                       : 0.045
  28. Stream size                              : 1.59 GiB (46%)
  29. Default                                  : Yes
  30. Forced                                   : No
  31. Color range                              : Limited
  32. Color primaries                          : BT.709
  33. Transfer characteristics                 : BT.709
  34. Matrix coefficients                      : BT.709
  35.  
  36. Audio #1
  37. ID                                       : 2
  38. Format                                   : AC-3
  39. Format/Info                              : Audio Coding 3
  40. Commercial name                          : Dolby Digital
  41. Codec ID                                 : A_AC3
  42. Duration                                 : 2 h 13 min
  43. Bit rate mode                            : Constant
  44. Bit rate                                 : 448 kb/s
  45. Channel(s)                               : 6 channels
  46. Channel layout                           : L R C LFE Ls Rs
  47. Sampling rate                            : 48.0 kHz
  48. Frame rate                               : 31.250 FPS (1536 SPF)
  49. Compression mode                         : Lossy
  50. Delay relative to video                  : -26 ms
  51. Stream size                              : 428 MiB (12%)
  52. Title                                    : Hindi
  53. Language                                 : Hindi
  54. Service kind                             : Complete Main
  55. Default                                  : Yes
  56. Forced                                   : No
  57.  
  58. Audio #2
  59. ID                                       : 3
  60. Format                                   : DTS
  61. Format/Info                              : Digital Theater Systems
  62. Codec ID                                 : A_DTS
  63. Duration                                 : 2 h 13 min
  64. Bit rate mode                            : Constant
  65. Bit rate                                 : 1 509 kb/s
  66. Channel(s)                               : 6 channels
  67. Channel layout                           : C L R Ls Rs LFE
  68. Sampling rate                            : 48.0 kHz
  69. Frame rate                               : 93.750 FPS (512 SPF)
  70. Bit depth                                : 24 bits
  71. Compression mode                         : Lossy
  72. Stream size                              : 1.41 GiB (41%)
  73. Title                                    : English
  74. Language                                 : English
  75. Default                                  : No
  76. Forced                                   : No
  77.  
  78. Text
  79. ID                                       : 4
  80. Format                                   : PGS
  81. Codec ID                                 : S_HDMV/PGS
  82. Codec ID/Info                            : Picture based subtitle format used on BDs/HD-DVDs
  83. Duration                                 : 2 h 12 min
  84. Bit rate                                 : 45.7 kb/s
  85. Frame rate                               : 0.496 FPS
  86. Count of elements                        : 3948
  87. Stream size                              : 43.3 MiB (1%)
  88. Title                                    : English [PGS]
  89. Language                                 : English
  90. Default                                  : Yes
  91. Forced                                   : No
  92.  
  93. Menu
  94. 00:00:00.026                             : 第 01 章
  95. 00:05:17.426                             : 第 02 章
  96. 00:13:31.295                             : 第 03 章
  97. 00:21:10.795                             : 第 04 章
  98. 00:26:32.367                             : 第 05 章
  99. 00:37:42.828                             : 第 06 章
  100. 00:45:23.580                             : 第 07 章
  101. 00:49:30.285                             : 第 08 章
  102. 00:56:53.895                             : 第 09 章
  103. 01:02:40.574                             : 第 10 章
  104. 01:09:43.080                             : 第 11 章
  105. 01:15:19.666                             : 第 12 章
  106. 01:23:06.382                             : 第 13 章
  107. 01:28:54.605                             : 第 14 章
  108. 01:35:56.860                             : 第 15 章
  109. 01:38:35.977                             : 第 16 章
  110. 01:43:12.545                             : 第 17 章
  111. 01:49:42.852                             : 第 18 章
  112. 01:57:19.600                             : 第 19 章
  113. 02:07:00.680                             : 第 20 章