The text below is selected, press Ctrl+C to copy to your clipboard. (⌘+C on Mac) No line numbers will be copied.
Encanto (2021) 1080p 10bit

21st January 2022 05:02:07 AM | Views: 85
  1. Format                                   : Matroska
  2. Format version                           : Version 4
  3. File size                                : 2.18 GiB
  4. Duration                                 : 1 h 42 min
  5. Overall bit rate                         : 3 057 kb/s
  6. Movie name                               : Encanto (2021) 1080p BluRay x265 10bit HEVC Dual Audio [Hindi DDP5.1 + English BD5.1] ESub 2.17GB [www.MoviezAddiction.art]
  7. Encoded date                             : UTC 2022-01-20 06:13:37
  8. Writing application                      : mkvmerge v47.0.0 ('Black Flag') 64-bit
  9. Writing library                          : libebml v1.3.10 + libmatroska v1.5.2
  10.  
  11. Video
  12. ID                                       : 1
  13. Format                                   : HEVC
  14. Format/Info                              : High Efficiency Video Coding
  15. Format profile                           : Main [email protected]@Main
  16. Codec ID                                 : V_MPEGH/ISO/HEVC
  17. Duration                                 : 1 h 42 min
  18. Bit rate                                 : 2 176 kb/s
  19. Width                                    : 1 920 pixels
  20. Height                                   : 1 040 pixels
  21. Display aspect ratio                     : 1.85:1
  22. Frame rate mode                          : Constant
  23. Frame rate                               : 23.976 (24000/1001) FPS
  24. Color space                              : YUV
  25. Chroma subsampling                       : 4:2:0
  26. Bit depth                                : 10 bits
  27. Bits/(Pixel*Frame)                       : 0.045
  28. Stream size                              : 1.55 GiB (71%)
  29. Title                                    : [www.MoviezAddiction.art]
  30. Default                                  : Yes
  31. Forced                                   : No
  32.  
  33. Audio #1
  34. ID                                       : 2
  35. Format                                   : E-AC-3
  36. Format/Info                              : Enhanced AC-3
  37. Commercial name                          : Dolby Digital Plus
  38. Codec ID                                 : A_EAC3
  39. Duration                                 : 1 h 42 min
  40. Bit rate mode                            : Constant
  41. Bit rate                                 : 192 kb/s
  42. Channel(s)                               : 6 channels
  43. Channel layout                           : L R C LFE Ls Rs
  44. Sampling rate                            : 48.0 kHz
  45. Frame rate                               : 31.250 FPS (1536 SPF)
  46. Compression mode                         : Lossy
  47. Delay relative to video                  : 16 ms
  48. Stream size                              : 140 MiB (6%)
  49. Title                                    : [www.MoviezAddiction.art] - Hindi
  50. Language                                 : Hindi
  51. Service kind                             : Complete Main
  52. Default                                  : Yes
  53. Forced                                   : No
  54.  
  55. Audio #2
  56. ID                                       : 3
  57. Format                                   : AC-3
  58. Format/Info                              : Audio Coding 3
  59. Commercial name                          : Dolby Digital
  60. Codec ID                                 : A_AC3
  61. Duration                                 : 1 h 42 min
  62. Bit rate mode                            : Constant
  63. Bit rate                                 : 640 kb/s
  64. Channel(s)                               : 6 channels
  65. Channel layout                           : L R C LFE Ls Rs
  66. Sampling rate                            : 48.0 kHz
  67. Frame rate                               : 31.250 FPS (1536 SPF)
  68. Compression mode                         : Lossy
  69. Stream size                              : 467 MiB (21%)
  70. Title                                    : [www.MoviezAddiction.art] - English
  71. Language                                 : English
  72. Service kind                             : Complete Main
  73. Default                                  : No
  74. Forced                                   : No
  75.  
  76. Text
  77. ID                                       : 4
  78. Format                                   : PGS
  79. Codec ID                                 : S_HDMV/PGS
  80. Codec ID/Info                            : Picture based subtitle format used on BDs/HD-DVDs
  81. Duration                                 : 1 h 36 min
  82. Bit rate                                 : 49.7 kb/s
  83. Count of elements                        : 3674
  84. Stream size                              : 34.3 MiB (2%)
  85. Title                                    : [www.MoviezAddiction.art] - English [PGS]
  86. Language                                 : English
  87. Default                                  : Yes
  88. Forced                                   : No
  89.  
  90. Menu
  91. 00:00:00.000                             : Chapter 01
  92. 00:03:57.654                             : Chapter 02
  93. 00:09:49.297                             : Chapter 03
  94. 00:15:07.573                             : Chapter 04
  95. 00:16:54.889                             : Chapter 05
  96. 00:21:48.807                             : Chapter 06
  97. 00:24:54.910                             : Chapter 07
  98. 00:28:58.612                             : Chapter 08
  99. 00:31:10.619                             : Chapter 09
  100. 00:38:35.104                             : Chapter 10
  101. 00:44:57.820                             : Chapter 11
  102. 00:53:39.967                             : Chapter 12
  103. 01:01:22.345                             : Chapter 13
  104. 01:06:28.067                             : Chapter 14
  105. 01:11:41.255                             : Chapter 15
  106. 01:16:38.135                             : Chapter 16
  107. 01:24:25.394                             : Chapter 17
  108. 01:31:02.207                             : Chapter 18