The text below is selected, press Ctrl+C to copy to your clipboard. (⌘+C on Mac) No line numbers will be copied.
The Thing (2011) 1080p BluRay...

7th November 2022 08:03:33 AM | Views: 24
  1. Format                                   : Matroska
  2. Format version                           : Version 4
  3. File size                                : 5.81 GiB
  4. Duration                                 : 1 h 43 min
  5. Overall bit rate mode                    : Variable
  6. Overall bit rate                         : 8 068 kb/s
  7. Movie name                               : The Thing (2011) 1080p BluRay x264 Dual Audio [Hindi DVD DD5.1 + English DTS-HD MA 5.1] ESub 5.80GB [MoviezAddiction.life]
  8. Encoded date                             : UTC 2022-11-07 03:10:56
  9. Writing application                      : mkvmerge v71.1.0 ('Fortitude') 64-bit
  10. Writing library                          : libebml v1.4.4 + libmatroska v1.7.1
  11.  
  12. Video
  13. ID                                       : 1
  14. Format                                   : AVC
  15. Format/Info                              : Advanced Video Codec
  16. Format profile                           : [email protected]
  17. Format settings                          : CABAC / 5 Ref Frames
  18. Format settings, CABAC                   : Yes
  19. Format settings, Reference frames        : 5 frames
  20. Codec ID                                 : V_MPEG4/ISO/AVC
  21. Duration                                 : 1 h 43 min
  22. Bit rate                                 : 4 000 kb/s
  23. Width                                    : 1 920 pixels
  24. Height                                   : 800 pixels
  25. Display aspect ratio                     : 2.40:1
  26. Frame rate mode                          : Variable
  27. Frame rate                               : 23.976 (24000/1001) FPS
  28. Color space                              : YUV
  29. Chroma subsampling                       : 4:2:0
  30. Bit depth                                : 8 bits
  31. Scan type                                : Progressive
  32. Bits/(Pixel*Frame)                       : 0.109
  33. Stream size                              : 2.88 GiB (50%)
  34. Default                                  : Yes
  35. Forced                                   : No
  36.  
  37. Audio #1
  38. ID                                       : 2
  39. Format                                   : AC-3
  40. Format/Info                              : Audio Coding 3
  41. Commercial name                          : Dolby Digital
  42. Codec ID                                 : A_AC3
  43. Duration                                 : 1 h 43 min
  44. Bit rate mode                            : Constant
  45. Bit rate                                 : 448 kb/s
  46. Channel(s)                               : 6 channels
  47. Channel layout                           : L R C LFE Ls Rs
  48. Sampling rate                            : 48.0 kHz
  49. Frame rate                               : 31.250 FPS (1536 SPF)
  50. Compression mode                         : Lossy
  51. Delay relative to video                  : 128 ms
  52. Stream size                              : 330 MiB (6%)
  53. Title                                    : Hindi
  54. Language                                 : Hindi
  55. Service kind                             : Complete Main
  56. Default                                  : Yes
  57. Forced                                   : No
  58.  
  59. Audio #2
  60. ID                                       : 3
  61. Format                                   : DTS XLL
  62. Format/Info                              : Digital Theater Systems
  63. Commercial name                          : DTS-HD Master Audio
  64. Codec ID                                 : A_DTS
  65. Duration                                 : 1 h 43 min
  66. Bit rate mode                            : Variable
  67. Bit rate                                 : 3 600 kb/s
  68. Channel(s)                               : 6 channels
  69. Channel layout                           : C L R Ls Rs LFE
  70. Sampling rate                            : 48.0 kHz
  71. Frame rate                               : 93.750 FPS (512 SPF)
  72. Bit depth                                : 24 bits
  73. Compression mode                         : Lossless
  74. Stream size                              : 2.59 GiB (45%)
  75. Title                                    : English
  76. Language                                 : English
  77. Default                                  : No
  78. Forced                                   : No
  79.  
  80. Text
  81. ID                                       : 4
  82. Format                                   : PGS
  83. Codec ID                                 : S_HDMV/PGS
  84. Codec ID/Info                            : Picture based subtitle format used on BDs/HD-DVDs
  85. Duration                                 : 1 h 36 min
  86. Bit rate                                 : 19.9 kb/s
  87. Frame rate                               : 0.295 FPS
  88. Count of elements                        : 1702
  89. Stream size                              : 13.7 MiB (0%)
  90. Title                                    : English [PGS]
  91. Language                                 : English
  92. Default                                  : Yes
  93. Forced                                   : No
  94.  
  95. Menu
  96. 00:00:00.000                             : en:00:00:00.000
  97. 00:04:31.896                             : en:00:04:31.896
  98. 00:10:51.901                             : en:00:10:51.901
  99. 00:14:41.422                             : en:00:14:41.422
  100. 00:17:05.774                             : en:00:17:05.774
  101. 00:20:39.655                             : en:00:20:39.655
  102. 00:25:09.549                             : en:00:25:09.549
  103. 00:32:49.634                             : en:00:32:49.634
  104. 00:38:06.117                             : en:00:38:06.117
  105. 00:43:02.705                             : en:00:43:02.705
  106. 00:51:15.739                             : en:00:51:15.739
  107. 00:55:13.184                             : en:00:55:13.184
  108. 01:00:04.350                             : en:01:00:04.350
  109. 01:04:51.804                             : en:01:04:51.804
  110. 01:09:58.235                             : en:01:09:58.235
  111. 01:14:39.516                             : en:01:14:39.516
  112. 01:20:58.520                             : en:01:20:58.520
  113. 01:24:46.372                             : en:01:24:46.372
  114. 01:30:30.675                             : en:01:30:30.675
  115. 01:34:56.315                             : en:01:34:56.315