The text below is selected, press Ctrl+C to copy to your clipboard. (⌘+C on Mac) No line numbers will be copied.
Slither 2006

12th October 2020 10:40:17 PM | Views: 32
  1. General
  2. Unique ID                                : 7642526056415345754764207254943332958 (0x5BFE5A05E5E1EE27153119D56D47A5E)
  3. Complete name                            : Slither 2006 1080p BluRay x264 [Hindi DD 2.0 + English DD 5.1] ~LustMovies.pro~.mkv
  4. Format                                   : Matroska
  5. Format version                           : Version 4
  6. File size                                : 3.08 GiB
  7. Duration                                 : 1 h 35 min
  8. Overall bit rate mode                    : Variable
  9. Overall bit rate                         : 4 617 kb/s
  10. Movie name                               : LustMovies.pro
  11. Encoded date                             : UTC 2020-10-12 20:06:41
  12. Writing application                      : mkvmerge v50.0.0 ('Awakenings') 64-bit
  13. Writing library                          : libebml v1.4.0 + libmatroska v1.6.2
  14.  
  15. Video
  16. ID                                       : 1
  17. Format                                   : AVC
  18. Format/Info                              : Advanced Video Codec
  19. Format profile                           : [email protected]
  20. Format settings                          : CABAC / 2 Ref Frames
  21. Format settings, CABAC                   : Yes
  22. Format settings, Reference frames        : 2 frames
  23. Format settings, GOP                     : M=1, N=24
  24. Codec ID                                 : V_MPEG4/ISO/AVC
  25. Duration                                 : 1 h 35 min
  26. Bit rate mode                            : Variable
  27. Bit rate                                 : 3 949 kb/s
  28. Maximum bit rate                         : 6 190 kb/s
  29. Width                                    : 1 920 pixels
  30. Height                                   : 1 080 pixels
  31. Display aspect ratio                     : 16:9
  32. Frame rate mode                          : Constant
  33. Frame rate                               : 23.976 (24000/1001) FPS
  34. Color space                              : YUV
  35. Chroma subsampling                       : 4:2:0
  36. Bit depth                                : 8 bits
  37. Scan type                                : Progressive
  38. Bits/(Pixel*Frame)                       : 0.079
  39. Stream size                              : 2.64 GiB (86%)
  40. Title                                    : LustMovies.pro
  41. Default                                  : Yes
  42. Forced                                   : No
  43. Color primaries                          : BT.709
  44. Transfer characteristics                 : BT.709
  45. Matrix coefficients                      : BT.709
  46. Duration_Source                          : General_Duration
  47.  
  48. Audio #1
  49. ID                                       : 2
  50. Format                                   : AC-3
  51. Format/Info                              : Audio Coding 3
  52. Commercial name                          : Dolby Digital
  53. Codec ID                                 : A_AC3
  54. Duration                                 : 1 h 35 min
  55. Bit rate mode                            : Constant
  56. Bit rate                                 : 128 kb/s
  57. Channel(s)                               : 2 channels
  58. Channel layout                           : L R
  59. Sampling rate                            : 48.0 kHz
  60. Frame rate                               : 31.250 FPS (1536 SPF)
  61. Compression mode                         : Lossy
  62. Delay relative to video                  : 1 s 200 ms
  63. Stream size                              : 87.5 MiB (3%)
  64. Title                                    : LustMovies.pro
  65. Language                                 : Hindi
  66. Service kind                             : Complete Main
  67. Default                                  : Yes
  68. Forced                                   : No
  69. Duration_Source                          : General_Duration
  70.  
  71. Audio #2
  72. ID                                       : 3
  73. Format                                   : AC-3
  74. Format/Info                              : Audio Coding 3
  75. Commercial name                          : Dolby Digital
  76. Codec ID                                 : A_AC3
  77. Duration                                 : 1 h 35 min
  78. Bit rate mode                            : Constant
  79. Bit rate                                 : 448 kb/s
  80. Channel(s)                               : 6 channels
  81. Channel layout                           : L R C LFE Ls Rs
  82. Sampling rate                            : 48.0 kHz
  83. Frame rate                               : 31.250 FPS (1536 SPF)
  84. Compression mode                         : Lossy
  85. Stream size                              : 306 MiB (10%)
  86. Title                                    : LustMovies.pro
  87. Language                                 : English
  88. Service kind                             : Complete Main
  89. Default                                  : No
  90. Forced                                   : No
  91. Duration_Source                          : General_Duration
  92.  
  93. Text
  94. ID                                       : 4
  95. Format                                   : VobSub
  96. Muxing mode                              : zlib
  97. Codec ID                                 : S_VOBSUB
  98. Codec ID/Info                            : Picture based subtitle format used on DVDs
  99. Title                                    : LustMovies.pro
  100. Language                                 : English
  101. Default                                  : Yes
  102. Forced                                   : No
  103.  
  104. General
  105. Unique ID                                : 47641974729012727376552223638946581718 (0x23D782B4FADC9CCCA7C9DB10133C0CD6)
  106. Complete name                            : Slither 2006 720p BluRay x264 [Hindi DD 2.0 + English AAC 5.1] ~LustMovies.pro~.mkv
  107. Format                                   : Matroska
  108. Format version                           : Version 4
  109. File size                                : 888 MiB
  110. Duration                                 : 1 h 35 min
  111. Overall bit rate                         : 1 297 kb/s
  112. Movie name                               : Slither 2006 720p BluRay x264 [Hindi DD 2.0 + English AAC 5.1] ~LustMovies.pro~
  113. Encoded date                             : UTC 2020-10-12 20:05:50
  114. Writing application                      : mkvmerge v50.0.0 ('Awakenings') 64-bit
  115. Writing library                          : libebml v1.4.0 + libmatroska v1.6.2
  116.  
  117. Video
  118. ID                                       : 1
  119. Format                                   : AVC
  120. Format/Info                              : Advanced Video Codec
  121. Format profile                           : [email protected]
  122. Format settings                          : CABAC / 5 Ref Frames
  123. Format settings, CABAC                   : Yes
  124. Format settings, Reference frames        : 5 frames
  125. Codec ID                                 : V_MPEG4/ISO/AVC
  126. Duration                                 : 1 h 35 min
  127. Nominal bit rate                         : 1 000 kb/s
  128. Width                                    : 1 280 pixels
  129. Height                                   : 694 pixels
  130. Display aspect ratio                     : 1.85:1
  131. Frame rate mode                          : Constant
  132. Frame rate                               : 23.976 (24000/1001) FPS
  133. Color space                              : YUV
  134. Chroma subsampling                       : 4:2:0
  135. Bit depth                                : 8 bits
  136. Scan type                                : Progressive
  137. Bits/(Pixel*Frame)                       : 0.047
  138. Title                                    : LustMovies.pro
  139. Writing library                          : x264 core 152 r2854 e9a5903
  140. Encoding settings                        : cabac=1 / ref=5 / deblock=1:0:0 / analyse=0x3:0x113 / me=hex / subme=8 / psy=1 / psy_rd=1.00:0.00 / mixed_ref=1 / me_range=16 / chroma_me=1 / trellis=2 / 8x8dct=1 / cqm=0 / deadzone=21,11 / fast_pskip=1 / chroma_qp_offset=-2 / threads=22 / lookahead_threads=3 / sliced_threads=0 / nr=0 / decimate=1 / interlaced=0 / bluray_compat=0 / constrained_intra=0 / bframes=3 / b_pyramid=2 / b_adapt=1 / b_bias=0 / direct=3 / weightb=1 / open_gop=0 / weightp=2 / keyint=240 / keyint_min=24 / scenecut=40 / intra_refresh=0 / rc_lookahead=50 / rc=abr / mbtree=1 / bitrate=1000 / ratetol=1.0 / qcomp=0.60 / qpmin=0 / qpmax=69 / qpstep=4 / ip_ratio=1.40 / aq=1:1.00
  141. Default                                  : Yes
  142. Forced                                   : No
  143. Color range                              : Limited
  144. Color primaries                          : BT.709
  145. Transfer characteristics                 : BT.709
  146. Matrix coefficients                      : BT.709
  147. Duration_Source                          : General_Duration
  148.  
  149. Audio #1
  150. ID                                       : 2
  151. Format                                   : AC-3
  152. Format/Info                              : Audio Coding 3
  153. Commercial name                          : Dolby Digital
  154. Codec ID                                 : A_AC3
  155. Duration                                 : 1 h 35 min
  156. Bit rate mode                            : Constant
  157. Bit rate                                 : 128 kb/s
  158. Channel(s)                               : 2 channels
  159. Channel layout                           : L R
  160. Sampling rate                            : 48.0 kHz
  161. Frame rate                               : 31.250 FPS (1536 SPF)
  162. Compression mode                         : Lossy
  163. Delay relative to video                  : 1 s 179 ms
  164. Stream size                              : 87.6 MiB (10%)
  165. Title                                    : LustMovies.pro
  166. Language                                 : Hindi
  167. Service kind                             : Complete Main
  168. Default                                  : Yes
  169. Forced                                   : No
  170. Duration_Source                          : General_Duration
  171.  
  172. Audio #2
  173. ID                                       : 3
  174. Format                                   : AAC LC
  175. Format/Info                              : Advanced Audio Codec Low Complexity
  176. Codec ID                                 : A_AAC-2
  177. Duration                                 : 1 h 35 min
  178. Channel(s)                               : 6 channels
  179. Channel layout                           : C L R Ls Rs LFE
  180. Sampling rate                            : 48.0 kHz
  181. Frame rate                               : 46.875 FPS (1024 SPF)
  182. Compression mode                         : Lossy
  183. Delay relative to video                  : -21 ms
  184. Title                                    : LustMovies.pro
  185. Language                                 : English
  186. Default                                  : No
  187. Forced                                   : No
  188. Duration_Source                          : General_Duration
  189.  
  190. Text
  191. ID                                       : 4
  192. Format                                   : VobSub
  193. Muxing mode                              : zlib
  194. Codec ID                                 : S_VOBSUB
  195. Codec ID/Info                            : Picture based subtitle format used on DVDs
  196. Title                                    : LustMovies.pro
  197. Language                                 : English
  198. Default                                  : Yes
  199. Forced                                   : No
  200.  
  201. General
  202. Unique ID                                : 167611852945027400488427317867349596104 (0x7E18DE60A3C7C2C44DDBC8C86D2CD7C8)
  203. Complete name                            : Slither 2006 480p BluRay x264 [Hindi DD 2.0 + English AAC 2.0] ~LustMovies.pro~.mkv
  204. Format                                   : Matroska
  205. Format version                           : Version 4
  206. File size                                : 364 MiB
  207. Duration                                 : 1 h 35 min
  208. Overall bit rate                         : 531 kb/s
  209. Movie name                               : Slither 2006 480p BluRay x264 [Hindi DD 2.0 + English AAC 2.0] ~LustMovies.pro~
  210. Encoded date                             : UTC 2020-10-12 20:05:22
  211. Writing application                      : mkvmerge v50.0.0 ('Awakenings') 64-bit
  212. Writing library                          : libebml v1.4.0 + libmatroska v1.6.2
  213.  
  214. Video
  215. ID                                       : 1
  216. Format                                   : AVC
  217. Format/Info                              : Advanced Video Codec
  218. Format profile                           : [email protected]
  219. Format settings                          : CABAC / 5 Ref Frames
  220. Format settings, CABAC                   : Yes
  221. Format settings, Reference frames        : 5 frames
  222. Codec ID                                 : V_MPEG4/ISO/AVC
  223. Duration                                 : 1 h 35 min
  224. Nominal bit rate                         : 400 kb/s
  225. Width                                    : 720 pixels
  226. Height                                   : 390 pixels
  227. Display aspect ratio                     : 1.85:1
  228. Frame rate mode                          : Constant
  229. Frame rate                               : 23.976 (24000/1001) FPS
  230. Color space                              : YUV
  231. Chroma subsampling                       : 4:2:0
  232. Bit depth                                : 8 bits
  233. Scan type                                : Progressive
  234. Bits/(Pixel*Frame)                       : 0.059
  235. Title                                    : LustMovies.pro
  236. Writing library                          : x264 core 152 r2854 e9a5903
  237. Encoding settings                        : cabac=1 / ref=5 / deblock=1:0:0 / analyse=0x3:0x113 / me=hex / subme=8 / psy=1 / psy_rd=1.00:0.00 / mixed_ref=1 / me_range=16 / chroma_me=1 / trellis=2 / 8x8dct=1 / cqm=0 / deadzone=21,11 / fast_pskip=1 / chroma_qp_offset=-2 / threads=12 / lookahead_threads=2 / sliced_threads=0 / nr=0 / decimate=1 / interlaced=0 / bluray_compat=0 / constrained_intra=0 / bframes=3 / b_pyramid=2 / b_adapt=1 / b_bias=0 / direct=3 / weightb=1 / open_gop=0 / weightp=2 / keyint=240 / keyint_min=24 / scenecut=40 / intra_refresh=0 / rc_lookahead=50 / rc=abr / mbtree=1 / bitrate=400 / ratetol=1.0 / qcomp=0.60 / qpmin=0 / qpmax=69 / qpstep=4 / ip_ratio=1.40 / aq=1:1.00
  238. Default                                  : Yes
  239. Forced                                   : No
  240. Color range                              : Limited
  241. Color primaries                          : BT.709
  242. Transfer characteristics                 : BT.709
  243. Matrix coefficients                      : BT.709
  244. Duration_Source                          : General_Duration
  245.  
  246. Audio #1
  247. ID                                       : 2
  248. Format                                   : AAC LC
  249. Format/Info                              : Advanced Audio Codec Low Complexity
  250. Codec ID                                 : A_AAC-2
  251. Duration                                 : 1 h 35 min
  252. Channel(s)                               : 2 channels
  253. Channel layout                           : L R
  254. Sampling rate                            : 48.0 kHz
  255. Frame rate                               : 46.875 FPS (1024 SPF)
  256. Compression mode                         : Lossy
  257. Delay relative to video                  : -21 ms
  258. Title                                    : LustMovies.pro
  259. Language                                 : Hindi
  260. Default                                  : Yes
  261. Forced                                   : No
  262. Duration_Source                          : General_Duration
  263.  
  264. Audio #2
  265. ID                                       : 3
  266. Format                                   : AAC LC
  267. Format/Info                              : Advanced Audio Codec Low Complexity
  268. Codec ID                                 : A_AAC-2
  269. Duration                                 : 1 h 35 min
  270. Channel(s)                               : 2 channels
  271. Channel layout                           : L R
  272. Sampling rate                            : 48.0 kHz
  273. Frame rate                               : 46.875 FPS (1024 SPF)
  274. Compression mode                         : Lossy
  275. Delay relative to video                  : -21 ms
  276. Title                                    : LustMovies.pro
  277. Language                                 : English
  278. Default                                  : No
  279. Forced                                   : No
  280. Duration_Source                          : General_Duration
  281.  
  282. Text
  283. ID                                       : 4
  284. Format                                   : VobSub
  285. Muxing mode                              : zlib
  286. Codec ID                                 : S_VOBSUB
  287. Codec ID/Info                            : Picture based subtitle format used on DVDs
  288. Title                                    : LustMovies.pro
  289. Language                                 : English
  290. Default                                  : Yes
  291. Forced                                   : No