The text below is selected, press Ctrl+C to copy to your clipboard. (⌘+C on Mac) No line numbers will be copied.
The Croods (2013) 2160p UHD...

23rd November 2022 04:25:02 AM | Views: 25
  1. Format                                   : Matroska
  2. Format version                           : Version 4
  3. File size                                : 11.5 GiB
  4. Duration                                 : 1 h 38 min
  5. Overall bit rate mode                    : Variable
  6. Overall bit rate                         : 16.6 Mb/s
  7. Movie name                               : The Croods (2013) 2160p UHD BluRay x265 10bit HDR HEVC Dual Audio [Hindi DTS 5.1 + English DTS-X 7.1] ESub 11.4GB [MoviezAddiction.life]
  8. Encoded date                             : UTC 2022-11-21 15:20:07
  9. Writing application                      : mkvmerge v72.0.0 ('Minuano (Six-eight)') 64-bit
  10. Writing library                          : libebml v1.4.4 + libmatroska v1.7.1
  11.  
  12. Video
  13. ID                                       : 1
  14. Format                                   : HEVC
  15. Format/Info                              : High Efficiency Video Coding
  16. Format profile                           : Main [email protected]@High
  17. HDR format                               : SMPTE ST 2086, HDR10 compatible
  18. Codec ID                                 : V_MPEGH/ISO/HEVC
  19. Duration                                 : 1 h 38 min
  20. Bit rate                                 : 12.3 Mb/s
  21. Width                                    : 3 840 pixels
  22. Height                                   : 1 634 pixels
  23. Display aspect ratio                     : 2.35:1
  24. Frame rate mode                          : Constant
  25. Frame rate                               : 23.976 (24000/1001) FPS
  26. Color space                              : YUV
  27. Chroma subsampling                       : 4:2:0 (Type 2)
  28. Bit depth                                : 10 bits
  29. Bits/(Pixel*Frame)                       : 0.081
  30. Stream size                              : 8.44 GiB (74%)
  31. Default                                  : Yes
  32. Forced                                   : No
  33. Color range                              : Limited
  34. Color primaries                          : BT.2020
  35. Transfer characteristics                 : PQ
  36. Matrix coefficients                      : BT.2020 non-constant
  37. Mastering display color primaries        : Display P3
  38. Mastering display luminance              : min: 0.0050 cd/m2, max: 1000 cd/m2
  39. Maximum Content Light Level              : 941 cd/m2
  40. Maximum Frame-Average Light Level        : 177 cd/m2
  41.  
  42. Audio #1
  43. ID                                       : 2
  44. Format                                   : DTS
  45. Format/Info                              : Digital Theater Systems
  46. Codec ID                                 : A_DTS
  47. Duration                                 : 1 h 38 min
  48. Bit rate mode                            : Constant
  49. Bit rate                                 : 768 kb/s
  50. Channel(s)                               : 6 channels
  51. Channel layout                           : C L R Ls Rs LFE
  52. Sampling rate                            : 48.0 kHz
  53. Frame rate                               : 93.750 FPS (512 SPF)
  54. Bit depth                                : 24 bits
  55. Compression mode                         : Lossy
  56. Stream size                              : 542 MiB (5%)
  57. Title                                    : Hindi
  58. Language                                 : Hindi
  59. Default                                  : Yes
  60. Forced                                   : No
  61.  
  62. Audio #2
  63. ID                                       : 3
  64. Format                                   : DTS XLL X
  65. Format/Info                              : Digital Theater Systems
  66. Commercial name                          : DTS-HD Master Audio
  67. Codec ID                                 : A_DTS
  68. Duration                                 : 1 h 38 min
  69. Bit rate mode                            : Variable
  70. Bit rate                                 : 3 579 kb/s
  71. Channel(s)                               : 8 channels
  72. Channel(s)_Original                      : Object Based
  73. ChannelLayout_Original                   : Object Based
  74. Sampling rate                            : 48.0 kHz
  75. Frame rate                               : 93.750 FPS (512 SPF)
  76. Bit depth                                : 24 bits
  77. Stream size                              : 2.46 GiB (22%)
  78. Title                                    : English
  79. Language                                 : English
  80. Default                                  : No
  81. Forced                                   : No
  82.  
  83. Text
  84. ID                                       : 4
  85. Format                                   : PGS
  86. Codec ID                                 : S_HDMV/PGS
  87. Codec ID/Info                            : Picture based subtitle format used on BDs/HD-DVDs
  88. Duration                                 : 1 h 28 min
  89. Bit rate                                 : 24.0 kb/s
  90. Frame rate                               : 0.383 FPS
  91. Count of elements                        : 2042
  92. Stream size                              : 15.3 MiB (0%)
  93. Title                                    : English [PGS]
  94. Language                                 : English
  95. Default                                  : Yes
  96. Forced                                   : No
  97.  
  98. Menu
  99. 00:00:00.000                             : en:Chapter 1
  100. 00:02:36.656                             : en:Chapter 2
  101. 00:04:53.418                             : en:Chapter 3
  102. 00:09:02.917                             : en:Chapter 4
  103. 00:12:16.027                             : en:Chapter 5
  104. 00:14:06.471                             : en:Chapter 6
  105. 00:18:34.697                             : en:Chapter 7
  106. 00:21:58.651                             : en:Chapter 8
  107. 00:23:26.405                             : en:Chapter 9
  108. 00:26:51.443                             : en:Chapter 10
  109. 00:28:38.800                             : en:Chapter 11
  110. 00:30:27.325                             : en:Chapter 12
  111. 00:32:50.302                             : en:Chapter 13
  112. 00:36:05.038                             : en:Chapter 14
  113. 00:38:35.230                             : en:Chapter 15
  114. 00:41:36.202                             : en:Chapter 16
  115. 00:44:40.511                             : en:Chapter 17
  116. 00:48:04.298                             : en:Chapter 18
  117. 00:52:12.629                             : en:Chapter 19
  118. 00:55:19.149                             : en:Chapter 20
  119. 01:00:16.446                             : en:Chapter 21
  120. 01:03:59.753                             : en:Chapter 22
  121. 01:05:50.405                             : en:Chapter 23
  122. 01:08:45.705                             : en:Chapter 24
  123. 01:10:48.953                             : en:Chapter 25
  124. 01:12:38.813                             : en:Chapter 26
  125. 01:14:03.314                             : en:Chapter 27
  126. 01:19:50.244                             : en:Chapter 28
  127. 01:23:11.528                             : en:Chapter 29
  128. 01:25:18.405                             : en:Chapter 30
  129. 01:28:05.989                             : en:Chapter 31
  130. 01:30:03.898                             : en:Chapter 32