The text below is selected, press Ctrl+C to copy to your clipboard. (⌘+C on Mac) No line numbers will be copied.
Sicario (2015) 720p Bluray x264

14th September 2020 04:17:22 PM | Views: 23
  1. Format                                   : Matroska
  2. Format version                           : Version 4
  3. File size                                : 1.21 GiB
  4. Duration                                 : 2 h 1 min
  5. Overall bit rate                         : 1 427 kb/s
  6. Movie name                               : Sicario (2015) 720p Bluray x264 Dual Audio [ Hindi DD2.0 + English DD5.1 ] ESub [www.MoviezAddiction.space]
  7. Encoded date                             : UTC 2020-09-14 13:37:06
  8. Writing application                      : mkvmerge v48.0.0 ('Fortress Around Your Heart') 64-bit
  9. Writing library                          : libebml v1.4.0 + libmatroska v1.6.0
  10. Cover                                    : Yes
  11. Attachments                              : cover.jpg
  12.  
  13. Video
  14. ID                                       : 2
  15. Format                                   : AVC
  16. Format/Info                              : Advanced Video Codec
  17. Format profile                           : [email protected]
  18. Format settings                          : CABAC / 8 Ref Frames
  19. Format settings, CABAC                   : Yes
  20. Format settings, Reference frames        : 8 frames
  21. Codec ID                                 : V_MPEG4/ISO/AVC
  22. Duration                                 : 2 h 1 min
  23. Bit rate                                 : 1 012 kb/s
  24. Width                                    : 1 280 pixels
  25. Height                                   : 534 pixels
  26. Display aspect ratio                     : 2.40:1
  27. Frame rate mode                          : Constant
  28. Frame rate                               : 23.976 (24000/1001) FPS
  29. Color space                              : YUV
  30. Chroma subsampling                       : 4:2:0
  31. Bit depth                                : 8 bits
  32. Scan type                                : Progressive
  33. Bits/(Pixel*Frame)                       : 0.062
  34. Stream size                              : 878 MiB (71%)
  35. Title                                    : [www.MoviezAddiction.space]
  36. Writing library                          : x264 core 152 r2851 ba24899
  37. Encoding settings                        : cabac=1 / ref=8 / deblock=1:-3:-3 / analyse=0x3:0x133 / me=umh / subme=10 / psy=1 / psy_rd=1.00:0.15 / mixed_ref=1 / me_range=32 / chroma_me=1 / trellis=2 / 8x8dct=1 / cqm=0 / deadzone=21,11 / fast_pskip=1 / chroma_qp_offset=-3 / threads=17 / lookahead_threads=1 / sliced_threads=0 / nr=0 / decimate=1 / interlaced=0 / bluray_compat=0 / constrained_intra=0 / bframes=3 / b_pyramid=2 / b_adapt=2 / b_bias=0 / direct=3 / weightb=1 / open_gop=0 / weightp=2 / keyint=250 / keyint_min=23 / scenecut=40 / intra_refresh=0 / rc_lookahead=60 / rc=2pass / mbtree=1 / bitrate=1012 / ratetol=1.0 / qcomp=0.60 / qpmin=0 / qpmax=69 / qpstep=4 / cplxblur=20.0 / qblur=0.5 / vbv_maxrate=17500 / vbv_bufsize=19000 / nal_hrd=none / filler=0 / ip_ratio=1.40 / aq=3:0.80
  38. Default                                  : Yes
  39. Forced                                   : No
  40. Color range                              : Limited
  41. Color primaries                          : BT.709
  42. Matrix coefficients                      : BT.709
  43.  
  44. Audio #1
  45. ID                                       : 1
  46. Format                                   : AC-3
  47. Format/Info                              : Audio Coding 3
  48. Commercial name                          : Dolby Digital
  49. Codec ID                                 : A_AC3
  50. Duration                                 : 2 h 1 min
  51. Bit rate mode                            : Constant
  52. Bit rate                                 : 224 kb/s
  53. Channel(s)                               : 2 channels
  54. Channel layout                           : L R
  55. Sampling rate                            : 48.0 kHz
  56. Frame rate                               : 31.250 FPS (1536 SPF)
  57. Compression mode                         : Lossy
  58. Delay relative to video                  : -120 ms
  59. Stream size                              : 194 MiB (16%)
  60. Title                                    : [www.MoviezAddiction.space]
  61. Language                                 : Hindi
  62. Service kind                             : Complete Main
  63. Default                                  : Yes
  64. Forced                                   : Yes
  65.  
  66. Audio #2
  67. ID                                       : 4
  68. Format                                   : AAC LC
  69. Format/Info                              : Advanced Audio Codec Low Complexity
  70. Codec ID                                 : A_AAC-2
  71. Duration                                 : 2 h 1 min
  72. Bit rate                                 : 192 kb/s
  73. Channel(s)                               : 6 channels
  74. Channel layout                           : C L R Ls Rs LFE
  75. Sampling rate                            : 48.0 kHz
  76. Frame rate                               : 46.875 FPS (1024 SPF)
  77. Compression mode                         : Lossy
  78. Delay relative to video                  : -1 s 70 ms
  79. Stream size                              : 164 MiB (13%)
  80. Title                                    : [www.MoviezAddiction.space]
  81. Language                                 : English
  82. Default                                  : No
  83. Forced                                   : No
  84.  
  85. Text
  86. ID                                       : 3
  87. Format                                   : UTF-8
  88. Codec ID                                 : S_TEXT/UTF8
  89. Codec ID/Info                            : UTF-8 Plain Text
  90. Duration                                 : 1 h 50 min
  91. Bit rate                                 : 38 b/s
  92. Count of elements                        : 989
  93. Stream size                              : 31.1 KiB (0%)
  94. Title                                    : [www.MoviezAddiction.space]
  95. Language                                 : English
  96. Default                                  : Yes
  97. Forced                                   : Yes
  98.  
  99. Menu
  100. 00:00:00.000                             : en:Chapter 1
  101. 00:07:13.349                             : en:Chapter 2
  102. 00:12:54.106                             : en:Chapter 3
  103. 00:20:03.368                             : en:Chapter 4
  104. 00:25:23.813                             : en:Chapter 5
  105. 00:32:10.595                             : en:Chapter 6
  106. 00:39:23.819                             : en:Chapter 7
  107. 00:46:14.313                             : en:Chapter 8
  108. 00:53:23.575                             : en:Chapter 9
  109. 01:01:39.320                             : en:Chapter 10
  110. 01:10:48.118                             : en:Chapter 11
  111. 01:18:01.885                             : en:Chapter 12
  112. 01:30:58.369                             : en:Chapter 13
  113. 01:36:56.769                             : en:Chapter 14
  114. 01:47:41.037                             : en:Chapter 15
  115. 01:54:11.803                             : en:Chapter 16