The text below is selected, press Ctrl+C to copy to your clipboard. (⌘+C on Mac) No line numbers will be copied.
1

25th April 2019 02:36:24 PM | Views: 218
  1. Format                                   : MPEG-4
  2. Format profile                           : Base Media
  3. Codec ID                                 : isom (isom/iso2/avc1/mp41)
  4. File size                                : 3.17 GiB
  5. Duration                                 : 2 h 26 min
  6. Overall bit rate                         : 3 090 kb/s
  7. Movie name                               : Saathi
  8. Grouping                                 : DDR @ Desitorrents.tv
  9. Performer                                : Aditya Pancholi, Mohsin Khan, Varsha Usgaonkar, Soni Razdan
  10. Director                                 : Mahesh Bhatt
  11. Actor                                    : Aditya Pancholi / Mohsin Khan / Varsha Usgaonkar / Soni Razdan
  12. Screenplay by                            : Robin Bhatt
  13. Producer                                 : Mukesh Duggal
  14. Genre                                    : Action, Drama, Romance
  15. ContentType                              : Short Film
  16. Recorded date                            : 1991
  17. Tagged date                              : UTC 2019-04-22 20:45:09
  18. Writing application                      : DDR @ Desitorrents.tv
  19. Cover                                    : Yes
  20. Comment                                  : DDR @ Desitorrents.tv
  21. LongDescription                          : As children, Suraj and Amar had helplessly watched a police inspector beat their poor father to death by throwing him from a window of a multi-storied building. Amar and Suraj grow up and take to petty crime. It is this that leads them to a gangster named Pasha, and it is here that Amar and Suraj will decide to part ways, for Amar does not want to get involved in any gangland activity especially dealing with illicit drugs, while Suraj wants money and wealth and will do anything to get rich. Their paths will cross again, when Suraj accepts a contract to kill a young drug addict named Vicky from testifying against Pasha and his men. What Suraj does not know is that Vicky is the brother of Asha, the woman Amar has fallen in love with, and will do anything to protect her and Vicky.
  22. AppleStoreCatalogID                      : 499179
  23. Xtra                                     : WM/EncodedBy
  24.  
  25. Video
  26. ID                                       : 1
  27. Format                                   : AVC
  28. Format/Info                              : Advanced Video Codec
  29. Format profile                           : [email protected]
  30. Format settings                          : CABAC / 4 Ref Frames
  31. Format settings, CABAC                   : Yes
  32. Format settings, RefFrames               : 4 frames
  33. Codec ID                                 : avc1
  34. Codec ID/Info                            : Advanced Video Coding
  35. Duration                                 : 2 h 26 min
  36. Source duration                          : 2 h 26 min
  37. Bit rate                                 : 3 000 kb/s
  38. Width                                    : 1 932 pixels
  39. Height                                   : 1 080 pixels
  40. Display aspect ratio                     : 16:9
  41. Frame rate mode                          : Constant
  42. Frame rate                               : 25.000 FPS
  43. Color space                              : YUV
  44. Chroma subsampling                       : 4:2:0
  45. Bit depth                                : 8 bits
  46. Scan type                                : Progressive
  47. Bits/(Pixel*Frame)                       : 0.058
  48. Stream size                              : 2.97 GiB (94%)
  49. Source stream size                       : 3.08 GiB (97%)
  50. Title                                    : DDR @ Desitorrents.tv
  51. Writing library                          : x264 core 148 r2795 aaa9aa8
  52. Encoding settings                        : cabac=1 / ref=2 / deblock=1:0:0 / analyse=0x3:0x113 / me=hex / subme=7 / psy=1 / psy_rd=1.00:0.00 / mixed_ref=1 / me_range=16 / chroma_me=1 / trellis=1 / 8x8dct=1 / cqm=0 / deadzone=21,11 / fast_pskip=1 / chroma_qp_offset=-2 / threads=34 / lookahead_threads=5 / sliced_threads=0 / nr=0 / decimate=1 / interlaced=0 / bluray_compat=0 / constrained_intra=0 / bframes=3 / b_pyramid=2 / b_adapt=1 / b_bias=0 / direct=1 / weightb=1 / open_gop=0 / weightp=2 / keyint=50 / keyint_min=26 / scenecut=0 / intra_refresh=0 / rc_lookahead=40 / rc=abr / mbtree=1 / bitrate=3000 / ratetol=1.0 / qcomp=0.60 / qpmin=0 / qpmax=69 / qpstep=4 / ip_ratio=1.40 / aq=1:1.00
  53. Language                                 : English
  54. Tagged date                              : UTC 2019-04-22 20:45:45
  55. Codec configuration box                  : avcC
  56.  
  57. Audio
  58. ID                                       : 2
  59. Format                                   : AAC LC
  60. Format/Info                              : Advanced Audio Codec Low Complexity
  61. Codec ID                                 : mp4a-40-2
  62. Duration                                 : 2 h 26 min
  63. Duration_FirstFrame                      : 59 ms
  64. Bit rate mode                            : Constant
  65. Bit rate                                 : 64.5 kb/s
  66. Channel(s)                               : 2 channels
  67. Channel layout                           : L R
  68. Sampling rate                            : 48.0 kHz
  69. Frame rate                               : 46.875 FPS (1024 SPF)
  70. Compression mode                         : Lossy
  71. Stream size                              : 67.7 MiB (2%)
  72. Title                                    : DDR @ Desitorrents.tv
  73. Language                                 : Hindi
  74. Default                                  : Yes
  75. Alternate group                          : 1
  76. Tagged date                              : UTC 2019-04-22 20:45:45