The text below is selected, press Ctrl+C to copy to your clipboard. (⌘+C on Mac) No line numbers will be copied.
Suicide Squad (2016) EXTENDED 1080p...

16th January 2023 02:57:55 PM | Views: 19
  1. Format                                   : Matroska
  2. Format version                           : Version 4
  3. File size                                : 2.75 GiB
  4. Duration                                 : 2 h 14 min
  5. Overall bit rate                         : 2 925 kb/s
  6. Movie name                               : Suicide Squad (2016) EXTENDED 1080p BluRay x265 10bit HEVC Dual Audio [Hindi SDTV-DL DD2.0 + English BD5.1] ESub 2.74GB [MoviezAddiction]
  7. Encoded date                             : UTC 2023-01-16 02:19:33
  8. Writing application                      : mkvmerge v72.0.0 ('Minuano (Six-eight)') 64-bit
  9. Writing library                          : libebml v1.4.4 + libmatroska v1.7.1
  10.  
  11. Video
  12. ID                                       : 1
  13. Format                                   : HEVC
  14. Format/Info                              : High Efficiency Video Coding
  15. Format profile                           : Main [email protected]@Main
  16. Codec ID                                 : V_MPEGH/ISO/HEVC
  17. Duration                                 : 2 h 14 min
  18. Bit rate                                 : 2 121 kb/s
  19. Width                                    : 1 920 pixels
  20. Height                                   : 800 pixels
  21. Display aspect ratio                     : 2.40:1
  22. Frame rate mode                          : Constant
  23. Frame rate                               : 23.976 (24000/1001) FPS
  24. Color space                              : YUV
  25. Chroma subsampling                       : 4:2:0
  26. Bit depth                                : 10 bits
  27. Bits/(Pixel*Frame)                       : 0.058
  28. Stream size                              : 1.99 GiB (73%)
  29. Default                                  : Yes
  30. Forced                                   : No
  31.  
  32. Audio #1
  33. ID                                       : 2
  34. Format                                   : AAC LC
  35. Format/Info                              : Advanced Audio Codec Low Complexity
  36. Codec ID                                 : A_AAC-2
  37. Duration                                 : 2 h 14 min
  38. Bit rate                                 : 128 kb/s
  39. Channel(s)                               : 2 channels
  40. Channel layout                           : L R
  41. Sampling rate                            : 48.0 kHz
  42. Frame rate                               : 46.875 FPS (1024 SPF)
  43. Compression mode                         : Lossy
  44. Stream size                              : 123 MiB (4%)
  45. Title                                    : Hindi
  46. Language                                 : Hindi
  47. Default                                  : Yes
  48. Forced                                   : No
  49.  
  50. Audio #2
  51. ID                                       : 3
  52. Format                                   : AC-3
  53. Format/Info                              : Audio Coding 3
  54. Commercial name                          : Dolby Digital
  55. Codec ID                                 : A_AC3
  56. Duration                                 : 2 h 14 min
  57. Bit rate mode                            : Constant
  58. Bit rate                                 : 640 kb/s
  59. Channel(s)                               : 6 channels
  60. Channel layout                           : L R C LFE Ls Rs
  61. Sampling rate                            : 48.0 kHz
  62. Frame rate                               : 31.250 FPS (1536 SPF)
  63. Compression mode                         : Lossy
  64. Stream size                              : 616 MiB (22%)
  65. Title                                    : English
  66. Language                                 : English
  67. Service kind                             : Complete Main
  68. Default                                  : No
  69. Forced                                   : No
  70.  
  71. Text
  72. ID                                       : 4
  73. Format                                   : PGS
  74. Codec ID                                 : S_HDMV/PGS
  75. Codec ID/Info                            : Picture based subtitle format used on BDs/HD-DVDs
  76. Duration                                 : 2 h 13 min
  77. Bit rate                                 : 33.1 kb/s
  78. Frame rate                               : 0.454 FPS
  79. Count of elements                        : 3648
  80. Stream size                              : 31.8 MiB (1%)
  81. Title                                    : English [PGS]
  82. Language                                 : English
  83. Default                                  : Yes
  84. Forced                                   : No
  85.  
  86. Menu
  87. 00:00:00.000                             : en:00:00:00.000
  88. 00:09:08.506                             : en:00:09:08.506
  89. 00:20:22.972                             : en:00:20:22.972
  90. 00:31:14.706                             : en:00:31:14.706
  91. 00:41:04.879                             : en:00:41:04.879
  92. 00:52:21.805                             : en:00:52:21.805
  93. 01:04:48.843                             : en:01:04:48.843
  94. 01:21:12.743                             : en:01:21:12.743
  95. 01:32:11.943                             : en:01:32:11.943
  96. 01:42:57.671                             : en:01:42:57.671
  97. 01:50:58.652                             : en:01:50:58.652
  98. 02:04:04.812                             : en:02:04:04.812