The text below is selected, press Ctrl+C to copy to your clipboard. (⌘+C on Mac) No line numbers will be copied.
Sing 2 (2021) REMASTERED DS4K...

10th January 2022 08:01:15 AM | Views: 15
  1. Format                                   : Matroska
  2. Format version                           : Version 4
  3. File size                                : 1 014 MiB
  4. Duration                                 : 1 h 49 min
  5. Overall bit rate                         : 1 291 kb/s
  6. Movie name                               : Sing 2 (2021) REMASTERED DS4K 720p WEB-DL x264 English DD5.1 MSubs 0.99GB [www.MoviezAddiction.art]
  7. Encoded date                             : UTC 2022-01-10 00:32:39
  8. Writing application                      : mkvmerge v47.0.0 ('Black Flag') 64-bit
  9. Writing library                          : libebml v1.3.10 + libmatroska v1.5.2
  10.  
  11. Video
  12. ID                                       : 1
  13. Format                                   : AVC
  14. Format/Info                              : Advanced Video Codec
  15. Format profile                           : [email protected]
  16. Format settings                          : CABAC / 4 Ref Frames
  17. Format settings, CABAC                   : Yes
  18. Format settings, Reference frames        : 4 frames
  19. Codec ID                                 : V_MPEG4/ISO/AVC
  20. Duration                                 : 1 h 49 min
  21. Bit rate                                 : 1 099 kb/s
  22. Width                                    : 1 280 pixels
  23. Height                                   : 690 pixels
  24. Display aspect ratio                     : 1.85:1
  25. Original display aspect ratio            : 1.85:1
  26. Frame rate mode                          : Variable
  27. Frame rate                               : 23.976 (24000/1001) FPS
  28. Color space                              : YUV
  29. Chroma subsampling                       : 4:2:0
  30. Bit depth                                : 8 bits
  31. Scan type                                : Progressive
  32. Bits/(Pixel*Frame)                       : 0.052
  33. Stream size                              : 862 MiB (85%)
  34. Title                                    : [www.MoviezAddiction.art]
  35. Default                                  : Yes
  36. Forced                                   : No
  37. Color range                              : Limited
  38. Color primaries                          : BT.709
  39. Transfer characteristics                 : BT.709
  40. Matrix coefficients                      : BT.709
  41.  
  42. Audio
  43. ID                                       : 2
  44. Format                                   : AAC LC SBR
  45. Format/Info                              : Advanced Audio Codec Low Complexity with Spectral Band Replication
  46. Commercial name                          : HE-AAC
  47. Format settings                          : Explicit
  48. Codec ID                                 : A_AAC-2
  49. Duration                                 : 1 h 49 min
  50. Bit rate                                 : 192 kb/s
  51. Channel(s)                               : 6 channels
  52. Channel layout                           : C L R Ls Rs LFE
  53. Sampling rate                            : 48.0 kHz
  54. Frame rate                               : 23.438 FPS (2048 SPF)
  55. Compression mode                         : Lossy
  56. Stream size                              : 150 MiB (15%)
  57. Title                                    : [www.MoviezAddiction.art] - English
  58. Language                                 : English
  59. Default                                  : Yes
  60. Forced                                   : No
  61.  
  62. Text #1
  63. ID                                       : 3
  64. Format                                   : UTF-8
  65. Codec ID                                 : S_TEXT/UTF8
  66. Codec ID/Info                            : UTF-8 Plain Text
  67. Duration                                 : 1 h 44 min
  68. Bit rate                                 : 81 b/s
  69. Count of elements                        : 2072
  70. Stream size                              : 62.1 KiB (0%)
  71. Title                                    : [www.MoviezAddiction.art] - English [SRT]
  72. Language                                 : English
  73. Default                                  : Yes
  74. Forced                                   : No
  75.  
  76. Text #2
  77. ID                                       : 4
  78. Format                                   : UTF-8
  79. Codec ID                                 : S_TEXT/UTF8
  80. Codec ID/Info                            : UTF-8 Plain Text
  81. Duration                                 : 1 h 49 min
  82. Bit rate                                 : 90 b/s
  83. Count of elements                        : 2403
  84. Stream size                              : 72.4 KiB (0%)
  85. Title                                    : [www.MoviezAddiction.art] - English [SDH] [SRT]
  86. Language                                 : English
  87. Default                                  : No
  88. Forced                                   : No