The text below is selected, press Ctrl+C to copy to your clipboard. (⌘+C on Mac) No line numbers will be copied.
Smile (2022) 1080p AMZN WEB-DL...

16th November 2022 12:10:49 PM | Views: 21
  1. Format                                   : Matroska
  2. Format version                           : Version 4
  3. File size                                : 7.70 GiB
  4. Duration                                 : 1 h 57 min
  5. Overall bit rate                         : 9 413 kb/s
  6. Movie name                               : Smile (2022) 1080p AMZN WEB-DL x264 Dual Audio [Hindi DDP5.1 + English DDP5.1] ESub 7.69GB [MoviezAddiction.life]
  7. Encoded date                             : UTC 2022-11-15 06:57:09
  8. Writing application                      : mkvmerge v71.1.0 ('Fortitude') 64-bit
  9. Writing library                          : libebml v1.4.4 + libmatroska v1.7.1
  10.  
  11. Video
  12. ID                                       : 1
  13. Format                                   : AVC
  14. Format/Info                              : Advanced Video Codec
  15. Format profile                           : [email protected]
  16. Format settings                          : CABAC / 4 Ref Frames
  17. Format settings, CABAC                   : Yes
  18. Format settings, Reference frames        : 4 frames
  19. Codec ID                                 : V_MPEG4/ISO/AVC
  20. Duration                                 : 1 h 55 min
  21. Bit rate mode                            : Constant
  22. Bit rate                                 : 8 235 kb/s
  23. Nominal bit rate                         : 10 000 kb/s
  24. Width                                    : 1 920 pixels
  25. Height                                   : 1 080 pixels
  26. Display aspect ratio                     : 16:9
  27. Frame rate mode                          : Constant
  28. Frame rate                               : 23.976 (24000/1001) FPS
  29. Color space                              : YUV
  30. Chroma subsampling                       : 4:2:0
  31. Bit depth                                : 8 bits
  32. Scan type                                : Progressive
  33. Bits/(Pixel*Frame)                       : 0.166
  34. Stream size                              : 6.66 GiB (86%)
  35. Default                                  : Yes
  36. Forced                                   : No
  37. Color range                              : Limited
  38. Color primaries                          : BT.709
  39. Transfer characteristics                 : BT.709
  40. Matrix coefficients                      : BT.709
  41.  
  42. Audio #1
  43. ID                                       : 2
  44. Format                                   : E-AC-3
  45. Format/Info                              : Enhanced AC-3
  46. Commercial name                          : Dolby Digital Plus
  47. Codec ID                                 : A_EAC3
  48. Duration                                 : 1 h 57 min
  49. Bit rate mode                            : Constant
  50. Bit rate                                 : 640 kb/s
  51. Channel(s)                               : 6 channels
  52. Channel layout                           : L R C LFE Ls Rs
  53. Sampling rate                            : 48.0 kHz
  54. Frame rate                               : 31.250 FPS (1536 SPF)
  55. Compression mode                         : Lossy
  56. Stream size                              : 536 MiB (7%)
  57. Title                                    : Hindi
  58. Language                                 : Hindi
  59. Service kind                             : Complete Main
  60. Default                                  : Yes
  61. Forced                                   : No
  62.  
  63. Audio #2
  64. ID                                       : 3
  65. Format                                   : E-AC-3
  66. Format/Info                              : Enhanced AC-3
  67. Commercial name                          : Dolby Digital Plus
  68. Codec ID                                 : A_EAC3
  69. Duration                                 : 1 h 55 min
  70. Bit rate mode                            : Constant
  71. Bit rate                                 : 640 kb/s
  72. Channel(s)                               : 6 channels
  73. Channel layout                           : L R C LFE Ls Rs
  74. Sampling rate                            : 48.0 kHz
  75. Frame rate                               : 31.250 FPS (1536 SPF)
  76. Compression mode                         : Lossy
  77. Stream size                              : 530 MiB (7%)
  78. Title                                    : English
  79. Language                                 : English
  80. Service kind                             : Complete Main
  81. Default                                  : Yes
  82. Forced                                   : No
  83.  
  84. Text
  85. ID                                       : 4
  86. Format                                   : UTF-8
  87. Codec ID                                 : S_TEXT/UTF8
  88. Codec ID/Info                            : UTF-8 Plain Text
  89. Duration                                 : 1 h 49 min
  90. Bit rate                                 : 46 b/s
  91. Frame rate                               : 0.206 FPS
  92. Count of elements                        : 1356
  93. Stream size                              : 37.8 KiB (0%)
  94. Title                                    : English [SRT]
  95. Language                                 : English
  96. Default                                  : Yes
  97. Forced                                   : No